  0
SECTION
  2
HEADER
  9
$ACADVER
  1
AC1015
  9
$ACADMAINTVER
 70
     6
  9
$DWGCODEPAGE
  3
ANSI_1252
  9
$INSBASE
 10
193.745215
 20
434.90652
 30
0.0
  9
$EXTMIN
 10
-42.247235
 20
368.499264
 30
0.0
  9
$EXTMAX
 10
797.752766
 20
962.499264
 30
0.0
  9
$LIMMIN
 10
-42.247235
 20
368.499264
  9
$LIMMAX
 10
797.752766
 20
962.499264
  9
$ORTHOMODE
 70
     0
  9
$REGENMODE
 70
     1
  9
$FILLMODE
 70
     1
  9
$QTEXTMODE
 70
     0
  9
$MIRRTEXT
 70
     1
  9
$LTSCALE
 40
2.0
  9
$ATTMODE
 70
     1
  9
$TEXTSIZE
 40
2.5
  9
$TRACEWID
 40
1.0
  9
$TEXTSTYLE
  7
Standard
  9
$CLAYER
  8
0
  9
$CELTYPE
  6
ByLayer
  9
$CECOLOR
 62
     7
  9
$CELTSCALE
 40
1.0
  9
$DISPSILH
 70
     0
  9
$DIMSCALE
 40
2.0
  9
$DIMASZ
 40
3.5
  9
$DIMEXO
 40
0.625
  9
$DIMDLI
 40
3.75
  9
$DIMRND
 40
0.0
  9
$DIMDLE
 40
0.0
  9
$DIMEXE
 40
1.25
  9
$DIMTP
 40
0.0
  9
$DIMTM
 40
0.0
  9
$DIMTXT
 40
3.5
  9
$DIMCEN
 40
2.5
  9
$DIMTSZ
 40
0.0
  9
$DIMTOL
 70
     0
  9
$DIMLIM
 70
     0
  9
$DIMTIH
 70
     0
  9
$DIMTOH
 70
     0
  9
$DIMSE1
 70
     0
  9
$DIMSE2
 70
     0
  9
$DIMTAD
 70
     1
  9
$DIMZIN
 70
     8
  9
$DIMBLK
  1

  9
$DIMASO
 70
     1
  9
$DIMSHO
 70
     1
  9
$DIMPOST
  1

  9
$DIMAPOST
  1

  9
$DIMALT
 70
     0
  9
$DIMALTD
 70
     3
  9
$DIMALTF
 40
0.03937
  9
$DIMLFAC
 40
1.0
  9
$DIMTOFL
 70
     1
  9
$DIMTVP
 40
0.0
  9
$DIMTIX
 70
     0
  9
$DIMSOXD
 70
     0
  9
$DIMSAH
 70
     0
  9
$DIMBLK1
  1

  9
$DIMBLK2
  1

  9
$DIMSTYLE
  2
ISO-25
  9
$DIMCLRD
 70
     0
  9
$DIMCLRE
 70
     0
  9
$DIMCLRT
 70
     0
  9
$DIMTFAC
 40
1.0
  9
$DIMGAP
 40
0.625
  9
$DIMJUST
 70
     0
  9
$DIMSD1
 70
     0
  9
$DIMSD2
 70
     0
  9
$DIMTOLJ
 70
     0
  9
$DIMTZIN
 70
     8
  9
$DIMALTZ
 70
     0
  9
$DIMALTTZ
 70
     0
  9
$DIMUPT
 70
     0
  9
$DIMDEC
 70
     2
  9
$DIMTDEC
 70
     2
  9
$DIMALTU
 70
     2
  9
$DIMALTTD
 70
     3
  9
$DIMTXSTY
  7
Standard
  9
$DIMAUNIT
 70
     0
  9
$DIMADEC
 70
     0
  9
$DIMALTRND
 40
0.0
  9
$DIMAZIN
 70
     0
  9
$DIMDSEP
 70
    44
  9
$DIMATFIT
 70
     3
  9
$DIMFRAC
 70
     0
  9
$DIMLDRBLK
  1

  9
$DIMLUNIT
 70
     2
  9
$DIMLWD
 70
    -2
  9
$DIMLWE
 70
    -2
  9
$DIMTMOVE
 70
     0
  9
$LUNITS
 70
     2
  9
$LUPREC
 70
     4
  9
$SKETCHINC
 40
1.0
  9
$FILLETRAD
 40
10.0
  9
$AUNITS
 70
     0
  9
$AUPREC
 70
     0
  9
$MENU
  1
.
  9
$ELEVATION
 40
0.0
  9
$PELEVATION
 40
0.0
  9
$THICKNESS
 40
0.0
  9
$LIMCHECK
 70
     0
  9
$CHAMFERA
 40
10.0
  9
$CHAMFERB
 40
10.0
  9
$CHAMFERC
 40
20.0
  9
$CHAMFERD
 40
0.0
  9
$SKPOLY
 70
     0
  9
$TDCREATE
 40
2455405.360033738
  9
$TDUCREATE
 40
2455405.276700405
  9
$TDUPDATE
 40
2455405.36003375
  9
$TDUUPDATE
 40
2455405.276700417
  9
$TDINDWG
 40
0.0000000116
  9
$TDUSRTIMER
 40
0.0000000116
  9
$USRTIMER
 70
     1
  9
$ANGBASE
 50
0.0
  9
$ANGDIR
 70
     0
  9
$PDMODE
 70
     0
  9
$PDSIZE
 40
0.0
  9
$PLINEWID
 40
0.0
  9
$SPLFRAME
 70
     0
  9
$SPLINETYPE
 70
     6
  9
$SPLINESEGS
 70
     8
  9
$HANDSEED
  5
130
  9
$SURFTAB1
 70
     6
  9
$SURFTAB2
 70
     6
  9
$SURFTYPE
 70
     6
  9
$SURFU
 70
     6
  9
$SURFV
 70
     6
  9
$UCSBASE
  2

  9
$UCSNAME
  2

  9
$UCSORG
 10
0.0
 20
0.0
 30
0.0
  9
$UCSXDIR
 10
1.0
 20
0.0
 30
0.0
  9
$UCSYDIR
 10
0.0
 20
1.0
 30
0.0
  9
$UCSORTHOREF
  2

  9
$UCSORTHOVIEW
 70
     0
  9
$UCSORGTOP
 10
0.0
 20
0.0
 30
0.0
  9
$UCSORGBOTTOM
 10
0.0
 20
0.0
 30
0.0
  9
$UCSORGLEFT
 10
0.0
 20
0.0
 30
0.0
  9
$UCSORGRIGHT
 10
0.0
 20
0.0
 30
0.0
  9
$UCSORGFRONT
 10
0.0
 20
0.0
 30
0.0
  9
$UCSORGBACK
 10
0.0
 20
0.0
 30
0.0
  9
$PUCSBASE
  2

  9
$PUCSNAME
  2

  9
$PUCSORG
 10
0.0
 20
0.0
 30
0.0
  9
$PUCSXDIR
 10
1.0
 20
0.0
 30
0.0
  9
$PUCSYDIR
 10
0.0
 20
1.0
 30
0.0
  9
$PUCSORTHOREF
  2

  9
$PUCSORTHOVIEW
 70
     0
  9
$PUCSORGTOP
 10
0.0
 20
0.0
 30
0.0
  9
$PUCSORGBOTTOM
 10
0.0
 20
0.0
 30
0.0
  9
$PUCSORGLEFT
 10
0.0
 20
0.0
 30
0.0
  9
$PUCSORGRIGHT
 10
0.0
 20
0.0
 30
0.0
  9
$PUCSORGFRONT
 10
0.0
 20
0.0
 30
0.0
  9
$PUCSORGBACK
 10
0.0
 20
0.0
 30
0.0
  9
$USERI1
 70
     0
  9
$USERI2
 70
     0
  9
$USERI3
 70
     0
  9
$USERI4
 70
     0
  9
$USERI5
 70
     0
  9
$USERR1
 40
0.0
  9
$USERR2
 40
0.0
  9
$USERR3
 40
0.0
  9
$USERR4
 40
0.0
  9
$USERR5
 40
0.0
  9
$WORLDVIEW
 70
     1
  9
$SHADEDGE
 70
     3
  9
$SHADEDIF
 70
    70
  9
$TILEMODE
 70
     1
  9
$MAXACTVP
 70
    64
  9
$PINSBASE
 10
0.0
 20
0.0
 30
0.0
  9
$PLIMCHECK
 70
     0
  9
$PEXTMIN
 10
-42.247235
 20
368.499264
 30
0.0
  9
$PEXTMAX
 10
797.752766
 20
962.499264
 30
0.0
  9
$PLIMMIN
 10
-42.247235
 20
368.499264
  9
$PLIMMAX
 10
797.752766
 20
962.499264
  9
$UNITMODE
 70
     0
  9
$VISRETAIN
 70
     1
  9
$PLINEGEN
 70
     0
  9
$PSLTSCALE
 70
     1
  9
$TREEDEPTH
 70
  3020
  9
$CMLSTYLE
  2
Standard
  9
$CMLJUST
 70
     0
  9
$CMLSCALE
 40
20.0
  9
$PROXYGRAPHICS
 70
     1
  9
$MEASUREMENT
 70
     1
  9
$CELWEIGHT
370
    -1
  9
$ENDCAPS
280
     0
  9
$JOINSTYLE
280
     0
  9
$LWDISPLAY
290
     0
  9
$INSUNITS
 70
     4
  9
$HYPERLINKBASE
  1

  9
$STYLESHEET
  1

  9
$XEDIT
290
     1
  9
$CEPSNTYPE
380
     0
  9
$PSTYLEMODE
290
     1
  9
$FINGERPRINTGUID
  2
{FAEB1C30-E019-11D5-929B-00C0DF256EC4}
  9
$VERSIONGUID
  2
{FAEB1C32-E019-11D5-929B-00C0DF256EC4}
  9
$EXTNAMES
290
     1
  9
$PSVPSCALE
 40
0.0
  9
$OLESTARTUP
290
     0
  0
ENDSEC
  0
SECTION
  2
CLASSES
  0
CLASS
  1
ACDBDICTIONARYWDFLT
  2
AcDbDictionaryWithDefault
  3
ObjectDBX Classes
 90
        0
280
     0
281
     0
  0
CLASS
  1
ACDBPLACEHOLDER
  2
AcDbPlaceHolder
  3
ObjectDBX Classes
 90
        0
280
     0
281
     0
  0
CLASS
  1
LAYOUT
  2
AcDbLayout
  3
ObjectDBX Classes
 90
        0
280
     0
281
     0
  0
ENDSEC
  0
SECTION
  2
TABLES
  0
TABLE
  2
VPORT
  5
8
330
0
100
AcDbSymbolTable
 70
     2
  0
VPORT
  5
29
330
8
100
AcDbSymbolTableRecord
100
AcDbViewportTableRecord
  2
*ACTIVE
 70
     0
 10
0.0
 20
0.0
 11
1.0
 21
1.0
 12
377.752765
 22
665.499264
 13
0.0
 23
0.0
 14
1.0
 24
1.0
 15
0.0
 25
0.0
 16
0.0
 26
0.0
 36
1.0
 17
0.0
 27
0.0
 37
0.0
 40
594.0
 41
1.414141
 42
50.0
 43
0.0
 44
0.0
 50
0.0
 51
0.0
 71
    16
 72
   100
 73
     1
 74
     0
 75
     0
 76
     0
 77
     0
 78
     0
281
     0
 65
     0
110
0.0
120
0.0
130
0.0
111
1.0
121
0.0
131
0.0
112
0.0
122
1.0
132
0.0
 79
     0
146
0.0
  0
ENDTAB
  0
TABLE
  2
LTYPE
  5
5
330
0
100
AcDbSymbolTable
 70
     3
  0
LTYPE
  5
14
330
5
100
AcDbSymbolTableRecord
100
AcDbLinetypeTableRecord
  2
ByBlock
 70
     0
  3

 72
    65
 73
     0
 40
0.0
  0
LTYPE
  5
15
330
5
100
AcDbSymbolTableRecord
100
AcDbLinetypeTableRecord
  2
ByLayer
 70
     0
  3

 72
    65
 73
     0
 40
0.0
  0
LTYPE
  5
16
330
5
100
AcDbSymbolTableRecord
100
AcDbLinetypeTableRecord
  2
Continuous
 70
     0
  3
Solid line
 72
    65
 73
     0
 40
0.0
  0
LTYPE
  5
2A
330
5
100
AcDbSymbolTableRecord
100
AcDbLinetypeTableRecord
  2
DASHED
 70
     0
  3
__ __ __ __ __
 72
    65
 73
     2
 40
6.25
 49
5.0
 74
     4
 75
     0
340
0
 46
1.0
 50
0.0
 44
0.0
 45
0.0
 49
-1.25
 74
     4
 75
     0
340
0
 46
1.0
 50
0.0
 44
0.0
 45
0.0
  0
LTYPE
  5
39
330
5
100
AcDbSymbolTableRecord
100
AcDbLinetypeTableRecord
  2
DASHDOT
 70
     0
  3
__ . __ . __ . __ . __
 72
    65
 73
     4
 40
7.5
 49
5.0
 74
     4
 75
     0
340
0
 46
1.0
 50
0.0
 44
0.0
 45
0.0
 49
-1.25
 74
     4
 75
     0
340
0
 46
1.0
 50
0.0
 44
0.0
 45
0.0
 49
0.0
 74
     4
 75
     0
340
0
 46
1.0
 50
0.0
 44
0.0
 45
0.0
 49
-1.25
 74
     4
 75
     0
340
0
 46
1.0
 50
0.0
 44
0.0
 45
0.0
  0
ENDTAB
  0
TABLE
  2
LAYER
  5
2
330
0
100
AcDbSymbolTable
 70
    12
  0
LAYER
  5
10
330
2
100
AcDbSymbolTableRecord
100
AcDbLayerTableRecord
  2
0
 70
     0
 62
     7
  6
Continuous
370
    -3
390
F
  0
LAYER
  5
2B
330
2
100
AcDbSymbolTableRecord
100
AcDbLayerTableRecord
  2
LC-INFO-1-2-mm-A3-0
 70
     1
 62
     7
  6
ByBlock
370
    -3
390
F
  0
LAYER
  5
2C
330
2
100
AcDbSymbolTableRecord
100
AcDbLayerTableRecord
  2
LC-CUT-HIDDEN
 70
     0
 62
     7
  6
DASHED
370
    -3
390
F
  0
LAYER
  5
2D
330
2
100
AcDbSymbolTableRecord
100
AcDbLayerTableRecord
  2
LC-VIEWPORT
 70
     0
 62
     7
  6
ByBlock
370
    -3
390
F
  0
LAYER
  5
2E
330
2
100
AcDbSymbolTableRecord
100
AcDbLayerTableRecord
  2
LC-3D-HIDDEN
 70
     0
 62
     9
  6
DASHED
370
    -3
390
F
  0
LAYER
  5
30
330
2
100
AcDbSymbolTableRecord
100
AcDbLayerTableRecord
  2
LC-001-002-----0
 70
     0
 62
     1
  6
ByBlock
370
    -3
390
F
  0
LAYER
  5
3A
330
2
100
AcDbSymbolTableRecord
100
AcDbLayerTableRecord
  2
LC-002-006-MLN-0
 70
     0
 62
     2
  6
DASHDOT
370
    -3
390
F
  0
LAYER
  5
49
330
2
100
AcDbSymbolTableRecord
100
AcDbLayerTableRecord
  2
LC-003-005-----0
 70
     0
 62
     2
  6
ByBlock
370
    -3
390
F
  0
LAYER
  5
63
330
2
100
AcDbSymbolTableRecord
100
AcDbLayerTableRecord
  2
LC-004-002-RND-0
 70
     0
 62
     1
  6
ByBlock
370
    -3
390
F
  0
LAYER
  5
BA
330
2
100
AcDbSymbolTableRecord
100
AcDbLayerTableRecord
  2
LC-005-003-----0
 70
     0
 62
     2
  6
ByBlock
370
    -3
390
F
  0
LAYER
  5
BC
330
2
100
AcDbSymbolTableRecord
100
AcDbLayerTableRecord
  2
Defpoints
 70
     0
 62
     7
  6
Continuous
290
     0
370
    -3
390
F
  0
LAYER
  5
10C
330
2
100
AcDbSymbolTableRecord
100
AcDbLayerTableRecord
  2
LC-006-002-3SD-0
 70
     0
 62
     1
  6
ByBlock
370
    -3
390
F
  0
ENDTAB
  0
TABLE
  2
STYLE
  5
3
330
0
100
AcDbSymbolTable
 70
     3
  0
STYLE
  5
11
330
3
100
AcDbSymbolTableRecord
100
AcDbTextStyleTableRecord
  2
Standard
 70
     0
 40
0.0
 41
1.0
 50
0.0
 71
     0
 42
2.5
  3
txt
  4

  0
STYLE
  5
2F
330
3
100
AcDbSymbolTableRecord
100
AcDbTextStyleTableRecord
  2
LCTX15-400-0-0-Arial
 70
     0
 40
0.0
 41
0.8
 50
0.0
 71
     0
 42
3.5
  3

  4

1001
ACAD
1000
Arial
1071
 16777218
  0
STYLE
  5
B8
330
3
100
AcDbSymbolTableRecord
100
AcDbTextStyleTableRecord
  2
LCTX15-400-0-0pDIN-Schrift
 70
     0
 40
2.5
 41
0.8
 50
15.0
 71
     0
 42
3.5
  3
STANDARD
  4

  0
ENDTAB
  0
TABLE
  2
VIEW
  5
6
330
0
100
AcDbSymbolTable
 70
     0
  0
ENDTAB
  0
TABLE
  2
UCS
  5
7
330
0
100
AcDbSymbolTable
 70
     0
  0
ENDTAB
  0
TABLE
  2
APPID
  5
9
330
0
100
AcDbSymbolTable
 70
     1
  0
APPID
  5
12
330
9
100
AcDbSymbolTableRecord
100
AcDbRegAppTableRecord
  2
ACAD
 70
     0
  0
ENDTAB
  0
TABLE
  2
DIMSTYLE
  5
A
330
0
100
AcDbSymbolTable
 70
     2
100
AcDbDimStyleTable
  0
DIMSTYLE
105
27
330
A
100
AcDbSymbolTableRecord
100
AcDbDimStyleTableRecord
  2
ISO-25
 70
     0
 41
2.5
 42
0.625
 43
3.75
 44
1.25
 73
     0
 74
     0
 77
     1
 78
     8
140
2.5
141
2.5
143
0.03937
147
0.625
171
     3
172
     1
271
     2
272
     2
274
     3
278
    44
283
     0
284
     8
340
11
  0
DIMSTYLE
105
B9
102
{ACAD_REACTORS
330
BB
330
C9
330
E3
330
F1
330
120
102
}
330
A
100
AcDbSymbolTableRecord
100
AcDbDimStyleTableRecord
  2
LC-DIM-L-0140-02-02
 70
     0
 40
2.0
 41
14.0
 42
0.0
 43
7.5
 44
1.8
 73
     0
 74
     0
 77
     1
 78
     8
 79
     2
140
14.0
141
0.0
146
0.71
147
1.5
176
     2
177
     2
178
     2
179
     2
271
     2
278
    44
289
     1
340
B8
  0
ENDTAB
  0
TABLE
  2
BLOCK_RECORD
  5
1
330
0
100
AcDbSymbolTable
 70
    13
  0
BLOCK_RECORD
  5
1F
330
1
100
AcDbSymbolTableRecord
100
AcDbBlockTableRecord
  2
*Model_Space
340
22
  0
BLOCK_RECORD
  5
1B
330
1
100
AcDbSymbolTableRecord
100
AcDbBlockTableRecord
  2
*Paper_Space
340
1E
  0
BLOCK_RECORD
  5
23
330
1
100
AcDbSymbolTableRecord
100
AcDbBlockTableRecord
  2
*Paper_Space0
340
26
  0
BLOCK_RECORD
  5
46
330
1
100
AcDbSymbolTableRecord
100
AcDbBlockTableRecord
  2
KLON1
340
0
102
{BLKREFS
331
4C
102
}
  0
BLOCK_RECORD
  5
4D
330
1
100
AcDbSymbolTableRecord
100
AcDbBlockTableRecord
  2
KLON2
340
0
102
{BLKREFS
331
59
102
}
  0
BLOCK_RECORD
  5
67
330
1
100
AcDbSymbolTableRecord
100
AcDbBlockTableRecord
  2
KLON3
340
0
102
{BLKREFS
331
75
102
}
  0
BLOCK_RECORD
  5
7E
330
1
100
AcDbSymbolTableRecord
100
AcDbBlockTableRecord
  2
KLON4
340
0
102
{BLKREFS
331
83
102
}
  0
BLOCK_RECORD
  5
84
330
1
100
AcDbSymbolTableRecord
100
AcDbBlockTableRecord
  2
KLON5
340
0
102
{BLKREFS
331
91
102
}
  0
BLOCK_RECORD
  5
9E
330
1
100
AcDbSymbolTableRecord
100
AcDbBlockTableRecord
  2
KLON6
340
0
102
{BLKREFS
331
AB
102
}
  0
BLOCK_RECORD
  5
BD
330
1
100
AcDbSymbolTableRecord
100
AcDbBlockTableRecord
  2
*D7
340
0
  0
BLOCK_RECORD
  5
CA
330
1
100
AcDbSymbolTableRecord
100
AcDbBlockTableRecord
  2
*D8
340
0
  0
BLOCK_RECORD
  5
E4
330
1
100
AcDbSymbolTableRecord
100
AcDbBlockTableRecord
  2
*D9
340
0
  0
BLOCK_RECORD
  5
F2
330
1
100
AcDbSymbolTableRecord
100
AcDbBlockTableRecord
  2
*D10
340
0
  0
BLOCK_RECORD
  5
109
330
1
100
AcDbSymbolTableRecord
100
AcDbBlockTableRecord
  2
KLON7
340
0
102
{BLKREFS
331
10D
102
}
  0
BLOCK_RECORD
  5
121
330
1
100
AcDbSymbolTableRecord
100
AcDbBlockTableRecord
  2
*D12
340
0
  0
ENDTAB
  0
ENDSEC
  0
SECTION
  2
BLOCKS
  0
BLOCK
  5
20
330
1F
100
AcDbEntity
  8
0
100
AcDbBlockBegin
  2
*Model_Space
 70
     0
 71
     0
 10
0.0
 20
0.0
 30
0.0
  3
*Model_Space
  1

  0
ENDBLK
  5
21
330
1F
100
AcDbEntity
  8
0
100
AcDbBlockEnd
  0
BLOCK
  5
1C
330
1B
100
AcDbEntity
 67
     1
  8
0
100
AcDbBlockBegin
  2
*Paper_Space
 70
     0
 71
     0
 10
0.0
 20
0.0
 30
0.0
  3
*Paper_Space
  1

  0
ENDBLK
  5
1D
330
1B
100
AcDbEntity
 67
     1
  8
0
100
AcDbBlockEnd
  0
BLOCK
  5
24
330
23
100
AcDbEntity
  8
0
100
AcDbBlockBegin
  2
*Paper_Space0
 70
     0
 71
     0
 10
0.0
 20
0.0
 30
0.0
  3
*Paper_Space0
  1

  0
ENDBLK
  5
25
330
23
100
AcDbEntity
  8
0
100
AcDbBlockEnd
  0
BLOCK
  5
47
330
46
100
AcDbEntity
  8
0
100
AcDbBlockBegin
  2
KLON1
 70
     0
 71
     0
 10
0.0
 20
0.0
 30
0.0
  3
KLON1
  1

  4
KLON1
  0
LINE
  5
4A
330
46
100
AcDbEntity
  8
LC-003-005-----0
 62
     7
370
    25
100
AcDbLine
 10
451.201796
 20
738.15181
 30
0.0
 11
451.001796
 21
738.35181
 31
0.0
  0
LINE
  5
4B
330
46
100
AcDbEntity
  8
LC-003-005-----0
 62
     7
370
    25
100
AcDbLine
 10
449.787583
 20
738.15181
 30
0.0
 11
449.587583
 21
738.35181
 31
0.0
  0
ENDBLK
  5
48
330
46
100
AcDbEntity
  8
0
100
AcDbBlockEnd
  0
BLOCK
  5
4E
330
4D
100
AcDbEntity
  8
0
100
AcDbBlockBegin
  2
KLON2
 70
     0
 71
     0
 10
0.0
 20
0.0
 30
0.0
  3
KLON2
  1

  4
KLON2
  0
LINE
  5
50
330
4D
100
AcDbEntity
  8
LC-003-005-----0
 62
     7
370
    25
100
AcDbLine
 10
472.415
 20
738.15181
 30
0.0
 11
472.215
 21
738.35181
 31
0.0
  0
LINE
  5
51
330
4D
100
AcDbEntity
  8
LC-003-005-----0
 62
     7
370
    25
100
AcDbLine
 10
471.000786
 20
738.15181
 30
0.0
 11
470.800786
 21
738.35181
 31
0.0
  0
LINE
  5
52
330
4D
100
AcDbEntity
  8
LC-003-005-----0
 62
     7
370
    25
100
AcDbLine
 10
469.586573
 20
738.15181
 30
0.0
 11
469.386573
 21
738.35181
 31
0.0
  0
LINE
  5
53
330
4D
100
AcDbEntity
  8
LC-003-005-----0
 62
     7
370
    25
100
AcDbLine
 10
468.172359
 20
738.15181
 30
0.0
 11
467.972359
 21
738.35181
 31
0.0
  0
LINE
  5
54
330
4D
100
AcDbEntity
  8
LC-003-005-----0
 62
     7
370
    25
100
AcDbLine
 10
466.758146
 20
738.15181
 30
0.0
 11
466.558146
 21
738.35181
 31
0.0
  0
LINE
  5
55
330
4D
100
AcDbEntity
  8
LC-003-005-----0
 62
     7
370
    25
100
AcDbLine
 10
465.343932
 20
738.15181
 30
0.0
 11
465.143932
 21
738.35181
 31
0.0
  0
LINE
  5
56
330
4D
100
AcDbEntity
  8
LC-003-005-----0
 62
     7
370
    25
100
AcDbLine
 10
463.929718
 20
738.15181
 30
0.0
 11
463.729718
 21
738.35181
 31
0.0
  0
LINE
  5
57
330
4D
100
AcDbEntity
  8
LC-003-005-----0
 62
     7
370
    25
100
AcDbLine
 10
462.515505
 20
738.15181
 30
0.0
 11
462.315505
 21
738.35181
 31
0.0
  0
LINE
  5
58
330
4D
100
AcDbEntity
  8
LC-003-005-----0
 62
     7
370
    25
100
AcDbLine
 10
461.101291
 20
738.15181
 30
0.0
 11
460.901291
 21
738.35181
 31
0.0
  0
ENDBLK
  5
4F
330
4D
100
AcDbEntity
  8
0
100
AcDbBlockEnd
  0
BLOCK
  5
68
330
67
100
AcDbEntity
  8
0
100
AcDbBlockBegin
  2
KLON3
 70
     0
 71
     0
 10
0.0
 20
0.0
 30
0.0
  3
KLON3
  1

  4
KLON3
  0
LINE
  5
6A
330
67
100
AcDbEntity
  8
LC-003-005-----0
 62
     7
370
    25
100
AcDbLine
 10
470.47966
 20
736.35181
 30
0.0
 11
472.27966
 21
738.15181
 31
0.0
  0
LINE
  5
6B
330
67
100
AcDbEntity
  8
LC-003-005-----0
 62
     7
370
    25
100
AcDbLine
 10
467.651233
 20
736.35181
 30
0.0
 11
469.451233
 21
738.15181
 31
0.0
  0
LINE
  5
6C
330
67
100
AcDbEntity
  8
LC-003-005-----0
 62
     7
370
    25
100
AcDbLine
 10
464.822806
 20
736.35181
 30
0.0
 11
466.622806
 21
738.15181
 31
0.0
  0
LINE
  5
6D
330
67
100
AcDbEntity
  8
LC-003-005-----0
 62
     7
370
    25
100
AcDbLine
 10
461.994378
 20
736.35181
 30
0.0
 11
463.794378
 21
738.15181
 31
0.0
  0
LINE
  5
6E
330
67
100
AcDbEntity
  8
LC-003-005-----0
 62
     7
370
    25
100
AcDbLine
 10
459.165951
 20
736.35181
 30
0.0
 11
459.665951
 21
736.85181
 31
0.0
  0
LINE
  5
6F
330
67
100
AcDbEntity
  8
LC-003-005-----0
 62
     7
370
    25
100
AcDbLine
 10
459.911058
 20
737.096916
 30
0.0
 11
460.965951
 21
738.15181
 31
0.0
  0
LINE
  5
70
330
67
100
AcDbEntity
  8
LC-003-005-----0
 62
     7
370
    25
100
AcDbLine
 10
456.337524
 20
736.35181
 30
0.0
 11
456.837524
 21
736.85181
 31
0.0
  0
LINE
  5
71
330
67
100
AcDbEntity
  8
LC-003-005-----0
 62
     7
370
    25
100
AcDbLine
 10
453.509097
 20
736.35181
 30
0.0
 11
454.009097
 21
736.85181
 31
0.0
  0
LINE
  5
72
330
67
100
AcDbEntity
  8
LC-003-005-----0
 62
     7
370
    25
100
AcDbLine
 10
448.411058
 20
734.082197
 30
0.0
 11
450.661058
 21
736.332197
 31
0.0
  0
LINE
  5
73
330
67
100
AcDbEntity
  8
LC-003-005-----0
 62
     7
370
    25
100
AcDbLine
 10
450.68067
 20
736.35181
 30
0.0
 11
452.411058
 21
738.082197
 31
0.0
  0
LINE
  5
74
330
67
100
AcDbEntity
  8
LC-003-005-----0
 62
     7
370
    25
100
AcDbLine
 10
449.411058
 20
737.910624
 30
0.0
 11
449.652243
 21
738.15181
 31
0.0
  0
ENDBLK
  5
69
330
67
100
AcDbEntity
  8
0
100
AcDbBlockEnd
  0
BLOCK
  5
7F
330
7E
100
AcDbEntity
  8
0
100
AcDbBlockBegin
  2
KLON4
 70
     0
 71
     0
 10
0.0
 20
0.0
 30
0.0
  3
KLON4
  1

  4
KLON4
  0
LINE
  5
81
330
7E
100
AcDbEntity
  8
LC-003-005-----0
 62
     7
370
    25
100
AcDbLine
 10
353.621061
 20
738.15181
 30
0.0
 11
353.421061
 21
738.35181
 31
0.0
  0
LINE
  5
82
330
7E
100
AcDbEntity
  8
LC-003-005-----0
 62
     7
370
    25
100
AcDbLine
 10
352.206847
 20
738.15181
 30
0.0
 11
352.006847
 21
738.35181
 31
0.0
  0
ENDBLK
  5
80
330
7E
100
AcDbEntity
  8
0
100
AcDbBlockEnd
  0
BLOCK
  5
85
330
84
100
AcDbEntity
  8
0
100
AcDbBlockBegin
  2
KLON5
 70
     0
 71
     0
 10
0.0
 20
0.0
 30
0.0
  3
KLON5
  1

  4
KLON5
  0
LINE
  5
87
330
84
100
AcDbEntity
  8
LC-003-005-----0
 62
     7
370
    25
100
AcDbLine
 10
343.721566
 20
738.15181
 30
0.0
 11
343.521566
 21
738.35181
 31
0.0
  0
LINE
  5
88
330
84
100
AcDbEntity
  8
LC-003-005-----0
 62
     7
370
    25
100
AcDbLine
 10
342.307352
 20
738.15181
 30
0.0
 11
342.107352
 21
738.35181
 31
0.0
  0
LINE
  5
89
330
84
100
AcDbEntity
  8
LC-003-005-----0
 62
     7
370
    25
100
AcDbLine
 10
340.893139
 20
738.15181
 30
0.0
 11
340.693139
 21
738.35181
 31
0.0
  0
LINE
  5
8A
330
84
100
AcDbEntity
  8
LC-003-005-----0
 62
     7
370
    25
100
AcDbLine
 10
339.478925
 20
738.15181
 30
0.0
 11
339.278925
 21
738.35181
 31
0.0
  0
LINE
  5
8B
330
84
100
AcDbEntity
  8
LC-003-005-----0
 62
     7
370
    25
100
AcDbLine
 10
338.064711
 20
738.15181
 30
0.0
 11
337.864711
 21
738.35181
 31
0.0
  0
LINE
  5
8C
330
84
100
AcDbEntity
  8
LC-003-005-----0
 62
     7
370
    25
100
AcDbLine
 10
336.650498
 20
738.15181
 30
0.0
 11
336.450498
 21
738.35181
 31
0.0
  0
LINE
  5
8D
330
84
100
AcDbEntity
  8
LC-003-005-----0
 62
     7
370
    25
100
AcDbLine
 10
335.236284
 20
738.15181
 30
0.0
 11
335.036284
 21
738.35181
 31
0.0
  0
LINE
  5
8E
330
84
100
AcDbEntity
  8
LC-003-005-----0
 62
     7
370
    25
100
AcDbLine
 10
333.822071
 20
738.15181
 30
0.0
 11
333.622071
 21
738.35181
 31
0.0
  0
LINE
  5
8F
330
84
100
AcDbEntity
  8
LC-003-005-----0
 62
     7
370
    25
100
AcDbLine
 10
332.407857
 20
738.15181
 30
0.0
 11
332.207857
 21
738.35181
 31
0.0
  0
LINE
  5
90
330
84
100
AcDbEntity
  8
LC-003-005-----0
 62
     7
370
    25
100
AcDbLine
 10
330.993644
 20
738.15181
 30
0.0
 11
330.911058
 21
738.234396
 31
0.0
  0
ENDBLK
  5
86
330
84
100
AcDbEntity
  8
0
100
AcDbBlockEnd
  0
BLOCK
  5
9F
330
9E
100
AcDbEntity
  8
0
100
AcDbBlockBegin
  2
KLON6
 70
     0
 71
     0
 10
0.0
 20
0.0
 30
0.0
  3
KLON6
  1

  4
KLON6
  0
LINE
  5
A1
330
9E
100
AcDbEntity
  8
LC-003-005-----0
 62
     7
370
    25
100
AcDbLine
 10
354.342575
 20
733.35181
 30
0.0
 11
355.411058
 21
734.420292
 31
0.0
  0
LINE
  5
A2
330
9E
100
AcDbEntity
  8
LC-003-005-----0
 62
     7
370
    25
100
AcDbLine
 10
353.161058
 20
734.998719
 30
0.0
 11
354.712603
 21
736.550264
 31
0.0
  0
LINE
  5
A3
330
9E
100
AcDbEntity
  8
LC-003-005-----0
 62
     7
370
    25
100
AcDbLine
 10
351.685721
 20
736.35181
 30
0.0
 11
353.485721
 21
738.15181
 31
0.0
  0
LINE
  5
A4
330
9E
100
AcDbEntity
  8
LC-003-005-----0
 62
     7
370
    25
100
AcDbLine
 10
348.857293
 20
736.35181
 30
0.0
 11
349.357293
 21
736.85181
 31
0.0
  0
LINE
  5
A5
330
9E
100
AcDbEntity
  8
LC-003-005-----0
 62
     7
370
    25
100
AcDbLine
 10
346.028866
 20
736.35181
 30
0.0
 11
346.528866
 21
736.85181
 31
0.0
  0
LINE
  5
A6
330
9E
100
AcDbEntity
  8
LC-003-005-----0
 62
     7
370
    25
100
AcDbLine
 10
343.200439
 20
736.35181
 30
0.0
 11
343.911058
 21
737.062428
 31
0.0
  0
LINE
  5
A7
330
9E
100
AcDbEntity
  8
LC-003-005-----0
 62
     7
370
    25
100
AcDbLine
 10
340.372012
 20
736.35181
 30
0.0
 11
342.172012
 21
738.15181
 31
0.0
  0
LINE
  5
A8
330
9E
100
AcDbEntity
  8
LC-003-005-----0
 62
     7
370
    25
100
AcDbLine
 10
337.543585
 20
736.35181
 30
0.0
 11
339.343585
 21
738.15181
 31
0.0
  0
LINE
  5
A9
330
9E
100
AcDbEntity
  8
LC-003-005-----0
 62
     7
370
    25
100
AcDbLine
 10
334.715158
 20
736.35181
 30
0.0
 11
336.515158
 21
738.15181
 31
0.0
  0
LINE
  5
AA
330
9E
100
AcDbEntity
  8
LC-003-005-----0
 62
     7
370
    25
100
AcDbLine
 10
331.886731
 20
736.35181
 30
0.0
 11
333.686731
 21
738.15181
 31
0.0
  0
ENDBLK
  5
A0
330
9E
100
AcDbEntity
  8
0
100
AcDbBlockEnd
  0
BLOCK
  5
C7
330
BD
100
AcDbEntity
  8
0
100
AcDbBlockBegin
  2
*D7
 70
     1
 71
     0
 10
0.0
 20
0.0
 30
0.0
  3
*D7
  1

  0
LINE
  5
BE
330
BD
100
AcDbEntity
  8
LC-005-003-----0
 62
     2
370
    -2
100
AcDbLine
 10
449.411058
 20
737.50181
 30
0.0
 11
449.411058
 21
768.109546
 31
0.0
  0
LINE
  5
BF
330
BD
100
AcDbEntity
  8
LC-005-003-----0
 62
     2
370
    -2
100
AcDbLine
 10
354.411058
 20
737.50181
 30
0.0
 11
354.411058
 21
768.109546
 31
0.0
  0
LINE
  5
C0
330
BD
100
AcDbEntity
  8
LC-005-003-----0
 62
     2
370
    -2
100
AcDbLine
 10
421.411058
 20
764.509546
 30
0.0
 11
382.411058
 21
764.509546
 31
0.0
  0
SOLID
  5
C1
330
BD
100
AcDbEntity
  8
LC-005-003-----0
 62
     2
100
AcDbTrace
 10
421.411058
 20
759.842879
 30
0.0
 11
421.411058
 21
769.176213
 31
0.0
 12
449.411058
 22
764.509546
 32
0.0
 13
449.411058
 23
764.509546
 33
0.0
  0
SOLID
  5
C2
330
BD
100
AcDbEntity
  8
LC-005-003-----0
 62
     2
100
AcDbTrace
 10
382.411058
 20
769.176213
 30
0.0
 11
382.411058
 21
759.842879
 31
0.0
 12
354.411058
 22
764.509546
 32
0.0
 13
354.411058
 23
764.509546
 33
0.0
  0
MTEXT
  5
C3
330
BD
100
AcDbEntity
  8
LC-005-003-----0
 62
     2
100
AcDbMText
 10
400.555924
 20
795.309546
 30
0.0
 40
28.0
 41
0.0
 71
     5
 72
     1
  1
%%c\A1;95
  7
LCTX15-400-0-0pDIN-Schrift
 73
     1
 44
1.0
  0
POINT
  5
C4
330
BD
100
AcDbEntity
  8
Defpoints
 62
     0
100
AcDbPoint
 10
449.411058
 20
737.50181
 30
0.0
  0
POINT
  5
C5
330
BD
100
AcDbEntity
  8
Defpoints
 62
     0
100
AcDbPoint
 10
354.411058
 20
737.50181
 30
0.0
  0
POINT
  5
C6
330
BD
100
AcDbEntity
  8
Defpoints
 62
     0
100
AcDbPoint
 10
354.411058
 20
764.509546
 30
0.0
  0
ENDBLK
  5
C8
330
BD
100
AcDbEntity
  8
0
100
AcDbBlockEnd
  0
BLOCK
  5
D4
330
CA
100
AcDbEntity
  8
0
100
AcDbBlockBegin
  2
*D8
 70
     1
 71
     0
 10
0.0
 20
0.0
 30
0.0
  3
*D8
  1

  0
LINE
  5
CB
330
CA
100
AcDbEntity
  8
LC-005-003-----0
 62
     2
370
    -2
100
AcDbLine
 10
355.411058
 20
735.85181
 30
0.0
 11
355.411058
 21
664.517235
 31
0.0
  0
LINE
  5
CC
330
CA
100
AcDbEntity
  8
LC-005-003-----0
 62
     2
370
    -2
100
AcDbLine
 10
448.411058
 20
735.85181
 30
0.0
 11
448.411058
 21
664.517235
 31
0.0
  0
LINE
  5
CD
330
CA
100
AcDbEntity
  8
LC-005-003-----0
 62
     2
370
    -2
100
AcDbLine
 10
383.411058
 20
668.117235
 30
0.0
 11
420.411058
 21
668.117235
 31
0.0
  0
SOLID
  5
CE
330
CA
100
AcDbEntity
  8
LC-005-003-----0
 62
     2
100
AcDbTrace
 10
383.411058
 20
672.783902
 30
0.0
 11
383.411058
 21
663.450568
 31
0.0
 12
355.411058
 22
668.117235
 32
0.0
 13
355.411058
 23
668.117235
 33
0.0
  0
SOLID
  5
CF
330
CA
100
AcDbEntity
  8
LC-005-003-----0
 62
     2
100
AcDbTrace
 10
420.411058
 20
663.450568
 30
0.0
 11
420.411058
 21
672.783902
 31
0.0
 12
448.411058
 22
668.117235
 32
0.0
 13
448.411058
 23
668.117235
 33
0.0
  0
MTEXT
  5
D0
330
CA
100
AcDbEntity
  8
LC-005-003-----0
 62
     2
100
AcDbMText
 10
396.343015
 20
698.917235
 30
0.0
 40
28.0
 41
0.0
 71
     5
 72
     1
  1
%%c\A1;93
  7
LCTX15-400-0-0pDIN-Schrift
 73
     1
 44
1.0
  0
POINT
  5
D1
330
CA
100
AcDbEntity
  8
Defpoints
 62
     0
100
AcDbPoint
 10
355.411058
 20
735.85181
 30
0.0
  0
POINT
  5
D2
330
CA
100
AcDbEntity
  8
Defpoints
 62
     0
100
AcDbPoint
 10
448.411058
 20
735.85181
 30
0.0
  0
POINT
  5
D3
330
CA
100
AcDbEntity
  8
Defpoints
 62
     0
100
AcDbPoint
 10
448.411058
 20
668.117235
 30
0.0
  0
ENDBLK
  5
D5
330
CA
100
AcDbEntity
  8
0
100
AcDbBlockEnd
  0
BLOCK
  5
EF
330
E4
100
AcDbEntity
  8
0
100
AcDbBlockBegin
  2
*D9
 70
     1
 71
     0
 10
0.0
 20
0.0
 30
0.0
  3
*D9
  1

  0
LINE
  5
E5
330
E4
100
AcDbEntity
  8
LC-005-003-----0
 62
     2
370
    -2
100
AcDbLine
 10
330.911058
 20
738.35181
 30
0.0
 11
321.685058
 21
738.35181
 31
0.0
  0
LINE
  5
E6
330
E4
100
AcDbEntity
  8
LC-005-003-----0
 62
     2
370
    -2
100
AcDbLine
 10
330.911058
 20
736.35181
 30
0.0
 11
321.685058
 21
736.35181
 31
0.0
  0
LINE
  5
E7
330
E4
100
AcDbEntity
  8
LC-005-003-----0
 62
     2
370
    -2
100
AcDbLine
 10
325.285058
 20
708.35181
 30
0.0
 11
325.285058
 21
680.35181
 31
0.0
  0
LINE
  5
E8
330
E4
100
AcDbEntity
  8
LC-005-003-----0
 62
     2
370
    -2
100
AcDbLine
 10
325.285058
 20
766.35181
 30
0.0
 11
325.285058
 21
767.300677
 31
0.0
  0
SOLID
  5
E9
330
E4
100
AcDbEntity
  8
LC-005-003-----0
 62
     2
100
AcDbTrace
 10
320.618391
 20
766.35181
 30
0.0
 11
329.951725
 21
766.35181
 31
0.0
 12
325.285058
 22
738.35181
 32
0.0
 13
325.285058
 23
738.35181
 33
0.0
  0
SOLID
  5
EA
330
E4
100
AcDbEntity
  8
LC-005-003-----0
 62
     2
100
AcDbTrace
 10
329.951725
 20
708.35181
 30
0.0
 11
320.618391
 21
708.35181
 31
0.0
 12
325.285058
 22
736.35181
 32
0.0
 13
325.285058
 23
736.35181
 33
0.0
  0
MTEXT
  5
EB
330
E4
100
AcDbEntity
  8
LC-005-003-----0
 62
     2
100
AcDbMText
 10
294.485058
 20
754.330586
 30
0.0
 40
28.0
 41
0.0
 71
     5
 72
     1
  1
\A1;2
  7
LCTX15-400-0-0pDIN-Schrift
 11
6.123031769111886E-17
 21
1.0
 31
0.0
 73
     1
 44
1.0
  0
POINT
  5
EC
330
E4
100
AcDbEntity
  8
Defpoints
 62
     0
100
AcDbPoint
 10
330.911058
 20
738.35181
 30
0.0
  0
POINT
  5
ED
330
E4
100
AcDbEntity
  8
Defpoints
 62
     0
100
AcDbPoint
 10
330.911058
 20
736.35181
 30
0.0
  0
POINT
  5
EE
330
E4
100
AcDbEntity
  8
Defpoints
 62
     0
100
AcDbPoint
 10
325.285058
 20
736.35181
 30
0.0
  0
ENDBLK
  5
F0
330
E4
100
AcDbEntity
  8
0
100
AcDbBlockEnd
  0
BLOCK
  5
FD
330
F2
100
AcDbEntity
  8
0
100
AcDbBlockBegin
  2
*D10
 70
     1
 71
     0
 10
0.0
 20
0.0
 30
0.0
  3
*D10
  1

  0
LINE
  5
F3
330
F2
100
AcDbEntity
  8
LC-005-003-----0
 62
     2
370
    -2
100
AcDbLine
 10
330.911058
 20
738.35181
 30
0.0
 11
278.994473
 21
738.35181
 31
0.0
  0
LINE
  5
F4
330
F2
100
AcDbEntity
  8
LC-005-003-----0
 62
     2
370
    -2
100
AcDbLine
 10
354.161058
 20
733.35181
 30
0.0
 11
278.994473
 21
733.35181
 31
0.0
  0
LINE
  5
F5
330
F2
100
AcDbEntity
  8
LC-005-003-----0
 62
     2
370
    -2
100
AcDbLine
 10
282.594473
 20
705.35181
 30
0.0
 11
282.594473
 21
677.35181
 31
0.0
  0
LINE
  5
F6
330
F2
100
AcDbEntity
  8
LC-005-003-----0
 62
     2
370
    -2
100
AcDbLine
 10
282.594473
 20
766.35181
 30
0.0
 11
282.594473
 21
772.670832
 31
0.0
  0
SOLID
  5
F7
330
F2
100
AcDbEntity
  8
LC-005-003-----0
 62
     2
100
AcDbTrace
 10
277.927806
 20
766.35181
 30
0.0
 11
287.26114
 21
766.35181
 31
0.0
 12
282.594473
 22
738.35181
 32
0.0
 13
282.594473
 23
738.35181
 33
0.0
  0
SOLID
  5
F8
330
F2
100
AcDbEntity
  8
LC-005-003-----0
 62
     2
100
AcDbTrace
 10
287.26114
 20
705.35181
 30
0.0
 11
277.927806
 21
705.35181
 31
0.0
 12
282.594473
 22
733.35181
 32
0.0
 13
282.594473
 23
733.35181
 33
0.0
  0
MTEXT
  5
F9
330
F2
100
AcDbEntity
  8
LC-005-003-----0
 62
     2
100
AcDbMText
 10
251.794473
 20
760.234074
 30
0.0
 40
28.0
 41
0.0
 71
     5
 72
     1
  1
\A1;5
  7
LCTX15-400-0-0pDIN-Schrift
 11
6.123031769111886E-17
 21
1.0
 31
0.0
 73
     1
 44
1.0
  0
POINT
  5
FA
330
F2
100
AcDbEntity
  8
Defpoints
 62
     0
100
AcDbPoint
 10
330.911058
 20
738.35181
 30
0.0
  0
POINT
  5
FB
330
F2
100
AcDbEntity
  8
Defpoints
 62
     0
100
AcDbPoint
 10
354.161058
 20
733.35181
 30
0.0
  0
POINT
  5
FC
330
F2
100
AcDbEntity
  8
Defpoints
 62
     0
100
AcDbPoint
 10
282.594473
 20
733.35181
 30
0.0
  0
ENDBLK
  5
FE
330
F2
100
AcDbEntity
  8
0
100
AcDbBlockEnd
  0
BLOCK
  5
10A
330
109
100
AcDbEntity
  8
0
100
AcDbBlockBegin
  2
KLON7
 70
     0
 71
     0
 10
0.0
 20
0.0
 30
0.0
  3
KLON7
  1

  4
KLON7
  0
ENDBLK
  5
10B
330
109
100
AcDbEntity
  8
0
100
AcDbBlockEnd
  0
BLOCK
  5
12B
330
121
100
AcDbEntity
  8
0
100
AcDbBlockBegin
  2
*D12
 70
     1
 71
     0
 10
0.0
 20
0.0
 30
0.0
  3
*D12
  1

  0
LINE
  5
122
330
121
100
AcDbEntity
  8
LC-005-003-----0
 62
     2
370
    -2
100
AcDbLine
 10
330.911058
 20
736.35181
 30
0.0
 11
330.911058
 21
826.800009
 31
0.0
  0
LINE
  5
123
330
121
100
AcDbEntity
  8
LC-005-003-----0
 62
     2
370
    -2
100
AcDbLine
 10
472.911058
 20
736.35181
 30
0.0
 11
472.911058
 21
826.800009
 31
0.0
  0
LINE
  5
124
330
121
100
AcDbEntity
  8
LC-005-003-----0
 62
     2
370
    -2
100
AcDbLine
 10
358.911058
 20
823.200009
 30
0.0
 11
444.911058
 21
823.200009
 31
0.0
  0
SOLID
  5
125
330
121
100
AcDbEntity
  8
LC-005-003-----0
 62
     2
100
AcDbTrace
 10
358.911058
 20
827.866676
 30
0.0
 11
358.911058
 21
818.533342
 31
0.0
 12
330.911058
 22
823.200009
 32
0.0
 13
330.911058
 23
823.200009
 33
0.0
  0
SOLID
  5
126
330
121
100
AcDbEntity
  8
LC-005-003-----0
 62
     2
100
AcDbTrace
 10
444.911058
 20
818.533342
 30
0.0
 11
444.911058
 21
827.866676
 31
0.0
 12
472.911058
 22
823.200009
 32
0.0
 13
472.911058
 23
823.200009
 33
0.0
  0
MTEXT
  5
127
330
121
100
AcDbEntity
  8
LC-005-003-----0
 62
     2
100
AcDbMText
 10
400.555919
 20
854.000009
 30
0.0
 40
28.0
 41
0.0
 71
     5
 72
     1
  1
%%c\A1;142
  7
LCTX15-400-0-0pDIN-Schrift
 73
     1
 44
1.0
  0
POINT
  5
128
330
121
100
AcDbEntity
  8
Defpoints
 62
     0
100
AcDbPoint
 10
330.911058
 20
736.35181
 30
0.0
  0
POINT
  5
129
330
121
100
AcDbEntity
  8
Defpoints
 62
     0
100
AcDbPoint
 10
472.911058
 20
736.35181
 30
0.0
  0
POINT
  5
12A
330
121
100
AcDbEntity
  8
Defpoints
 62
     0
100
AcDbPoint
 10
472.911058
 20
823.200009
 30
0.0
  0
ENDBLK
  5
12C
330
121
100
AcDbEntity
  8
0
100
AcDbBlockEnd
  0
ENDSEC
  0
SECTION
  2
ENTITIES
  0
LINE
  5
31
102
{ACAD_REACTORS
330
12E
102
}
330
1F
100
AcDbEntity
  8
LC-001-002-----0
 62
     7
370
    50
100
AcDbLine
 10
472.911058
 20
738.15181
 30
0.0
 11
472.911058
 21
736.35181
 31
0.0
  0
LINE
  5
32
102
{ACAD_REACTORS
330
12D
102
}
330
1F
100
AcDbEntity
  8
LC-001-002-----0
 62
     7
370
    50
100
AcDbLine
 10
437.009212
 20
609.30048
 30
0.0
 11
437.718015
 21
610.009284
 31
0.0
  0
LINE
  5
33
102
{ACAD_REACTORS
330
12E
102
}
330
1F
100
AcDbEntity
  8
LC-001-002-----0
 62
     7
370
    50
100
AcDbLine
 10
472.911058
 20
738.15181
 30
0.0
 11
436.713454
 21
738.15181
 31
0.0
  0
LINE
  5
34
102
{ACAD_REACTORS
330
12E
102
}
330
1F
100
AcDbEntity
  8
LC-001-002-----0
 62
     7
370
    50
100
AcDbLine
 10
472.911058
 20
736.35181
 30
0.0
 11
450.661058
 21
736.35181
 31
0.0
  0
LINE
  5
35
102
{ACAD_REACTORS
330
12E
102
}
330
1F
100
AcDbEntity
  8
LC-001-002-----0
 62
     7
370
    50
100
AcDbLine
 10
433.121821
 20
736.85181
 30
0.0
 11
432.413018
 21
735.85181
 31
0.0
  0
LINE
  5
36
102
{ACAD_REACTORS
330
12E
102
}
330
1F
100
AcDbEntity
  8
LC-001-002-----0
 62
     7
370
    50
100
AcDbLine
 10
432.413018
 20
735.85181
 30
0.0
 11
432.413018
 21
733.35181
 31
0.0
  0
LINE
  5
37
102
{ACAD_REACTORS
330
12E
102
}
330
1F
100
AcDbEntity
  8
LC-001-002-----0
 62
     7
370
    50
100
AcDbLine
 10
437.009212
 20
735.85181
 30
0.0
 11
437.009212
 21
733.35181
 31
0.0
  0
LINE
  5
38
102
{ACAD_REACTORS
330
12D
102
}
330
1F
100
AcDbEntity
  8
LC-001-002-----0
 62
     7
370
    50
100
AcDbLine
 10
432.413018
 20
613.896674
 30
0.0
 11
433.121821
 21
614.605478
 31
0.0
  0
LINE
  5
3B
102
{ACAD_REACTORS
330
12E
102
}
330
1F
100
AcDbEntity
  8
LC-002-006-MLN-0
 62
     7
370
    25
100
AcDbLine
 10
401.911058
 20
748.35181
 30
0.0
 11
401.911058
 21
723.15181
 31
0.0
  0
LINE
  5
3C
102
{ACAD_REACTORS
330
12E
102
}
330
1F
100
AcDbEntity
  8
LC-001-002-----0
 62
     7
370
    50
100
AcDbLine
 10
449.411058
 20
738.15181
 30
0.0
 11
449.411058
 21
736.85181
 31
0.0
  0
LINE
  5
3D
102
{ACAD_REACTORS
330
12E
102
}
330
1F
100
AcDbEntity
  8
LC-001-002-----0
 62
     7
370
    50
100
AcDbLine
 10
472.911058
 20
738.35181
 30
0.0
 11
401.911058
 21
738.35181
 31
0.0
  0
LINE
  5
3E
102
{ACAD_REACTORS
330
12E
102
}
330
1F
100
AcDbEntity
  8
LC-001-002-----0
 62
     7
370
    50
100
AcDbLine
 10
437.718015
 20
736.85181
 30
0.0
 11
437.009212
 21
735.85181
 31
0.0
  0
LINE
  5
3F
102
{ACAD_REACTORS
330
12E
102
}
330
1F
100
AcDbEntity
  8
LC-001-002-----0
 62
     7
370
    50
100
AcDbLine
 10
459.911058
 20
738.15181
 30
0.0
 11
459.911058
 21
736.85181
 31
0.0
  0
LINE
  5
40
102
{ACAD_REACTORS
330
12E
102
}
330
1F
100
AcDbEntity
  8
LC-001-002-----0
 62
     7
370
    50
100
AcDbLine
 10
452.411058
 20
738.15181
 30
0.0
 11
452.411058
 21
736.85181
 31
0.0
  0
LINE
  5
41
102
{ACAD_REACTORS
330
12E
102
}
330
1F
100
AcDbEntity
  8
LC-001-002-----0
 62
     7
370
    50
100
AcDbLine
 10
459.911058
 20
736.85181
 30
0.0
 11
452.411058
 21
736.85181
 31
0.0
  0
CIRCLE
  5
42
330
1F
100
AcDbEntity
  8
LC-002-006-MLN-0
 62
     7
370
    25
100
AcDbCircle
 10
401.911058
 20
578.79852
 30
0.0
 40
54.5
  0
CIRCLE
  5
43
102
{ACAD_REACTORS
330
12D
102
}
330
1F
100
AcDbEntity
  8
LC-001-002-----0
 62
     7
370
    50
100
AcDbCircle
 10
401.911058
 20
578.79852
 30
0.0
 40
71.0
  0
CIRCLE
  5
44
102
{ACAD_REACTORS
330
12D
102
}
330
1F
100
AcDbEntity
  8
LC-001-002-----0
 62
     7
370
    50
100
AcDbCircle
 10
456.411058
 20
578.79852
 30
0.0
 40
3.75
  0
CIRCLE
  5
45
102
{ACAD_REACTORS
330
12D
102
}
330
1F
100
AcDbEntity
  8
LC-001-002-----0
 62
     7
370
    50
100
AcDbCircle
 10
347.411058
 20
578.79852
 30
0.0
 40
3.75
  0
INSERT
  5
4C
102
{ACAD_REACTORS
330
12E
102
}
330
1F
100
AcDbEntity
  8
LC-003-005-----0
 62
     7
370
    25
100
AcDbBlockReference
  2
KLON1
 10
0.0
 20
0.0
 30
0.0
  0
INSERT
  5
59
102
{ACAD_REACTORS
330
12E
102
}
330
1F
100
AcDbEntity
  8
LC-003-005-----0
 62
     7
370
    25
100
AcDbBlockReference
  2
KLON2
 10
0.0
 20
0.0
 30
0.0
  0
LINE
  5
5A
102
{ACAD_REACTORS
330
12E
102
}
330
1F
100
AcDbEntity
  8
LC-001-002-----0
 62
     7
370
    50
100
AcDbLine
 10
472.911058
 20
738.35181
 30
0.0
 11
472.911058
 21
738.15181
 31
0.0
  0
LINE
  5
5B
102
{ACAD_REACTORS
330
12E
102
}
330
1F
100
AcDbEntity
  8
LC-001-002-----0
 62
     7
370
    50
100
AcDbLine
 10
459.911058
 20
738.35181
 30
0.0
 11
459.911058
 21
738.15181
 31
0.0
  0
LINE
  5
5C
102
{ACAD_REACTORS
330
12E
102
}
330
1F
100
AcDbEntity
  8
LC-001-002-----0
 62
     7
370
    50
100
AcDbLine
 10
452.411058
 20
738.35181
 30
0.0
 11
452.411058
 21
738.15181
 31
0.0
  0
LINE
  5
5D
102
{ACAD_REACTORS
330
12E
102
}
330
1F
100
AcDbEntity
  8
LC-001-002-----0
 62
     7
370
    50
100
AcDbLine
 10
449.411058
 20
738.35181
 30
0.0
 11
449.411058
 21
738.15181
 31
0.0
  0
LINE
  5
5E
102
{ACAD_REACTORS
330
12E
102
}
330
1F
100
AcDbEntity
  8
LC-001-002-----0
 62
     7
370
    50
100
AcDbLine
 10
472.911058
 20
738.15181
 30
0.0
 11
436.713454
 21
738.15181
 31
0.0
  0
LINE
  5
5F
102
{ACAD_REACTORS
330
12E
102
}
330
1F
100
AcDbEntity
  8
LC-001-002-----0
 62
     7
370
    50
100
AcDbLine
 10
449.661058
 20
733.35181
 30
0.0
 11
436.174996
 21
733.35181
 31
0.0
  0
LINE
  5
60
102
{ACAD_REACTORS
330
12E
102
}
330
1F
100
AcDbEntity
  8
LC-001-002-----0
 62
     7
370
    50
100
AcDbLine
 10
450.661058
 20
736.35181
 30
0.0
 11
450.661058
 21
734.35181
 31
0.0
  0
LINE
  5
61
102
{ACAD_REACTORS
330
12E
102
}
330
1F
100
AcDbEntity
  8
LC-001-002-----0
 62
     7
370
    50
100
AcDbLine
 10
448.411058
 20
735.85181
 30
0.0
 11
448.411058
 21
733.35181
 31
0.0
  0
LINE
  5
62
102
{ACAD_REACTORS
330
12E
102
}
330
1F
100
AcDbEntity
  8
LC-001-002-----0
 62
     7
370
    50
100
AcDbLine
 10
449.411058
 20
736.85181
 30
0.0
 11
448.411058
 21
735.85181
 31
0.0
  0
ARC
  5
64
102
{ACAD_REACTORS
330
12E
102
}
330
1F
100
AcDbEntity
  8
LC-004-002-RND-0
 62
     7
370
    50
100
AcDbCircle
 10
449.661058
 20
734.35181
 30
0.0
 40
1.0
100
AcDbArc
 50
270.0
 51
0.0
  0
LINE
  5
65
102
{ACAD_REACTORS
330
12E
102
}
330
1F
100
AcDbEntity
  8
LC-001-002-----0
 62
     7
370
    50
100
AcDbLine
 10
448.411058
 20
735.85181
 30
0.0
 11
437.009212
 21
735.85181
 31
0.0
  0
LINE
  5
66
102
{ACAD_REACTORS
330
12E
102
}
330
1F
100
AcDbEntity
  8
LC-001-002-----0
 62
     7
370
    50
100
AcDbLine
 10
401.911058
 20
736.85181
 30
0.0
 11
433.121821
 21
736.85181
 31
0.0
  0
INSERT
  5
75
102
{ACAD_REACTORS
330
12E
102
}
330
1F
100
AcDbEntity
  8
LC-003-005-----0
 62
     7
370
    25
100
AcDbBlockReference
  2
KLON3
 10
0.0
 20
0.0
 30
0.0
  0
LINE
  5
76
102
{ACAD_REACTORS
330
12E
102
}
330
1F
100
AcDbEntity
  8
LC-001-002-----0
 62
     7
370
    50
100
AcDbLine
 10
330.911058
 20
738.15181
 30
0.0
 11
330.911058
 21
736.35181
 31
0.0
  0
LINE
  5
77
102
{ACAD_REACTORS
330
12E
102
}
330
1F
100
AcDbEntity
  8
LC-001-002-----0
 62
     7
370
    50
100
AcDbLine
 10
330.911058
 20
738.15181
 30
0.0
 11
367.108661
 21
738.15181
 31
0.0
  0
LINE
  5
78
102
{ACAD_REACTORS
330
12E
102
}
330
1F
100
AcDbEntity
  8
LC-001-002-----0
 62
     7
370
    50
100
AcDbLine
 10
330.911058
 20
736.35181
 30
0.0
 11
353.161058
 21
736.35181
 31
0.0
  0
LINE
  5
79
102
{ACAD_REACTORS
330
12E
102
}
330
1F
100
AcDbEntity
  8
LC-002-006-MLN-0
 62
     7
370
    25
100
AcDbLine
 10
401.911058
 20
748.35181
 30
0.0
 11
401.911058
 21
723.15181
 31
0.0
  0
LINE
  5
7A
102
{ACAD_REACTORS
330
12E
102
}
330
1F
100
AcDbEntity
  8
LC-001-002-----0
 62
     7
370
    50
100
AcDbLine
 10
354.411058
 20
738.15181
 30
0.0
 11
354.411058
 21
736.85181
 31
0.0
  0
LINE
  5
7B
102
{ACAD_REACTORS
330
12E
102
}
330
1F
100
AcDbEntity
  8
LC-001-002-----0
 62
     7
370
    50
100
AcDbLine
 10
343.911058
 20
738.15181
 30
0.0
 11
343.911058
 21
736.85181
 31
0.0
  0
LINE
  5
7C
102
{ACAD_REACTORS
330
12E
102
}
330
1F
100
AcDbEntity
  8
LC-001-002-----0
 62
     7
370
    50
100
AcDbLine
 10
351.411058
 20
738.15181
 30
0.0
 11
351.411058
 21
736.85181
 31
0.0
  0
LINE
  5
7D
102
{ACAD_REACTORS
330
12E
102
}
330
1F
100
AcDbEntity
  8
LC-001-002-----0
 62
     7
370
    50
100
AcDbLine
 10
343.911058
 20
736.85181
 30
0.0
 11
351.411058
 21
736.85181
 31
0.0
  0
INSERT
  5
83
102
{ACAD_REACTORS
330
12E
102
}
330
1F
100
AcDbEntity
  8
LC-003-005-----0
 62
     7
370
    25
100
AcDbBlockReference
  2
KLON4
 10
0.0
 20
0.0
 30
0.0
  0
INSERT
  5
91
102
{ACAD_REACTORS
330
12E
102
}
330
1F
100
AcDbEntity
  8
LC-003-005-----0
 62
     7
370
    25
100
AcDbBlockReference
  2
KLON5
 10
0.0
 20
0.0
 30
0.0
  0
LINE
  5
92
102
{ACAD_REACTORS
330
12E
102
}
330
1F
100
AcDbEntity
  8
LC-001-002-----0
 62
     7
370
    50
100
AcDbLine
 10
330.911058
 20
738.35181
 30
0.0
 11
330.911058
 21
738.15181
 31
0.0
  0
LINE
  5
93
102
{ACAD_REACTORS
330
12E
102
}
330
1F
100
AcDbEntity
  8
LC-001-002-----0
 62
     7
370
    50
100
AcDbLine
 10
343.911058
 20
738.35181
 30
0.0
 11
343.911058
 21
738.15181
 31
0.0
  0
LINE
  5
94
102
{ACAD_REACTORS
330
12E
102
}
330
1F
100
AcDbEntity
  8
LC-001-002-----0
 62
     7
370
    50
100
AcDbLine
 10
351.411058
 20
738.35181
 30
0.0
 11
351.411058
 21
738.15181
 31
0.0
  0
LINE
  5
95
102
{ACAD_REACTORS
330
12E
102
}
330
1F
100
AcDbEntity
  8
LC-001-002-----0
 62
     7
370
    50
100
AcDbLine
 10
354.411058
 20
738.35181
 30
0.0
 11
354.411058
 21
738.15181
 31
0.0
  0
LINE
  5
96
102
{ACAD_REACTORS
330
12E
102
}
330
1F
100
AcDbEntity
  8
LC-001-002-----0
 62
     7
370
    50
100
AcDbLine
 10
330.911058
 20
738.15181
 30
0.0
 11
369.583929
 21
738.15181
 31
0.0
  0
LINE
  5
97
102
{ACAD_REACTORS
330
12E
102
}
330
1F
100
AcDbEntity
  8
LC-001-002-----0
 62
     7
370
    50
100
AcDbLine
 10
354.161058
 20
733.35181
 30
0.0
 11
366.812903
 21
733.35181
 31
0.0
  0
LINE
  5
98
102
{ACAD_REACTORS
330
12E
102
}
330
1F
100
AcDbEntity
  8
LC-001-002-----0
 62
     7
370
    50
100
AcDbLine
 10
353.161058
 20
736.35181
 30
0.0
 11
353.161058
 21
734.35181
 31
0.0
  0
LINE
  5
99
102
{ACAD_REACTORS
330
12E
102
}
330
1F
100
AcDbEntity
  8
LC-001-002-----0
 62
     7
370
    50
100
AcDbLine
 10
355.411058
 20
735.85181
 30
0.0
 11
355.411058
 21
733.35181
 31
0.0
  0
LINE
  5
9A
102
{ACAD_REACTORS
330
12E
102
}
330
1F
100
AcDbEntity
  8
LC-001-002-----0
 62
     7
370
    50
100
AcDbLine
 10
354.411058
 20
736.85181
 30
0.0
 11
355.411058
 21
735.85181
 31
0.0
  0
ARC
  5
9B
102
{ACAD_REACTORS
330
12E
102
}
330
1F
100
AcDbEntity
  8
LC-004-002-RND-0
 62
     7
370
    50
100
AcDbCircle
 10
354.161058
 20
734.35181
 30
0.0
 40
1.0
100
AcDbArc
 50
180.0
 51
270.0
  0
LINE
  5
9C
102
{ACAD_REACTORS
330
12E
102
}
330
1F
100
AcDbEntity
  8
LC-001-002-----0
 62
     7
370
    50
100
AcDbLine
 10
355.411058
 20
735.85181
 30
0.0
 11
366.812903
 21
735.85181
 31
0.0
  0
LINE
  5
9D
102
{ACAD_REACTORS
330
12E
102
}
330
1F
100
AcDbEntity
  8
LC-001-002-----0
 62
     7
370
    50
100
AcDbLine
 10
401.911058
 20
736.85181
 30
0.0
 11
370.700294
 21
736.85181
 31
0.0
  0
INSERT
  5
AB
102
{ACAD_REACTORS
330
12E
102
}
330
1F
100
AcDbEntity
  8
LC-003-005-----0
 62
     7
370
    25
100
AcDbBlockReference
  2
KLON6
 10
0.0
 20
0.0
 30
0.0
  0
ARC
  5
AC
102
{ACAD_REACTORS
330
12D
102
}
330
1F
100
AcDbEntity
  8
LC-001-002-----0
 62
     7
370
    50
100
AcDbCircle
 10
448.411058
 20
578.79852
 30
0.0
 40
1.499999999999831
100
AcDbArc
 50
90.924166
 51
269.075834
  0
ARC
  5
AD
102
{ACAD_REACTORS
330
12D
102
}
330
1F
100
AcDbEntity
  8
LC-001-002-----0
 62
     7
370
    50
100
AcDbCircle
 10
442.181239
 20
602.04852
 30
0.0
 40
1.499999999999857
100
AcDbArc
 50
120.924166
 51
299.075834
  0
ARC
  5
AE
102
{ACAD_REACTORS
330
12D
102
}
330
1F
100
AcDbEntity
  8
LC-001-002-----0
 62
     7
370
    50
100
AcDbCircle
 10
425.161058
 20
619.068701
 30
0.0
 40
1.499999999999968
100
AcDbArc
 50
150.924166
 51
329.075834
  0
ARC
  5
AF
102
{ACAD_REACTORS
330
12D
102
}
330
1F
100
AcDbEntity
  8
LC-001-002-----0
 62
     7
370
    50
100
AcDbCircle
 10
401.911058
 20
625.29852
 30
0.0
 40
1.499999999999888
100
AcDbArc
 50
180.924166
 51
359.075834
  0
ARC
  5
B0
102
{ACAD_REACTORS
330
12D
102
}
330
1F
100
AcDbEntity
  8
LC-001-002-----0
 62
     7
370
    50
100
AcDbCircle
 10
378.661058
 20
619.068701
 30
0.0
 40
1.499999999999906
100
AcDbArc
 50
210.924166
 51
29.075834
  0
ARC
  5
B1
102
{ACAD_REACTORS
330
12D
102
}
330
1F
100
AcDbEntity
  8
LC-001-002-----0
 62
     7
370
    50
100
AcDbCircle
 10
361.640876
 20
602.04852
 30
0.0
 40
1.499999999999841
100
AcDbArc
 50
240.924166
 51
59.075834
  0
ARC
  5
B2
102
{ACAD_REACTORS
330
12D
102
}
330
1F
100
AcDbEntity
  8
LC-001-002-----0
 62
     7
370
    50
100
AcDbCircle
 10
355.411058
 20
578.79852
 30
0.0
 40
1.499999999999832
100
AcDbArc
 50
270.924166
 51
89.075834
  0
ARC
  5
B3
102
{ACAD_REACTORS
330
12D
102
}
330
1F
100
AcDbEntity
  8
LC-001-002-----0
 62
     7
370
    50
100
AcDbCircle
 10
361.640876
 20
555.54852
 30
0.0
 40
1.499999999999857
100
AcDbArc
 50
300.924166
 51
119.075834
  0
ARC
  5
B4
102
{ACAD_REACTORS
330
12D
102
}
330
1F
100
AcDbEntity
  8
LC-001-002-----0
 62
     7
370
    50
100
AcDbCircle
 10
378.661058
 20
538.528339
 30
0.0
 40
1.499999999999968
100
AcDbArc
 50
330.924166
 51
149.075834
  0
ARC
  5
B5
102
{ACAD_REACTORS
330
12D
102
}
330
1F
100
AcDbEntity
  8
LC-001-002-----0
 62
     7
370
    50
100
AcDbCircle
 10
401.911058
 20
532.29852
 30
0.0
 40
1.499999999999888
100
AcDbArc
 50
0.924166
 51
179.075834
  0
ARC
  5
B6
102
{ACAD_REACTORS
330
12D
102
}
330
1F
100
AcDbEntity
  8
LC-001-002-----0
 62
     7
370
    50
100
AcDbCircle
 10
425.161058
 20
538.528339
 30
0.0
 40
1.499999999999906
100
AcDbArc
 50
30.924166
 51
209.075834
  0
ARC
  5
B7
102
{ACAD_REACTORS
330
12D
102
}
330
1F
100
AcDbEntity
  8
LC-001-002-----0
 62
     7
370
    50
100
AcDbCircle
 10
442.181239
 20
555.54852
 30
0.0
 40
1.49999999999994
100
AcDbArc
 50
60.924166
 51
239.075834
  0
DIMENSION
  5
BB
330
1F
100
AcDbEntity
  8
LC-005-003-----0
 62
     7
370
    25
100
AcDbDimension
  2
*D7
 10
354.411058
 20
764.509546
 30
0.0
 11
400.555924
 21
795.309546
 31
0.0
 70
   160
  1
%%c<>
 71
     5
 42
95.0
  3
LC-DIM-L-0140-02-02
100
AcDbAlignedDimension
 13
449.411058
 23
737.50181
 33
0.0
 14
354.411058
 24
737.50181
 34
0.0
100
AcDbRotatedDimension
  0
DIMENSION
  5
C9
330
1F
100
AcDbEntity
  8
LC-005-003-----0
 62
     7
370
    25
100
AcDbDimension
  2
*D8
 10
448.411058
 20
668.117235
 30
0.0
 11
396.343015
 21
698.917235
 31
0.0
 70
   160
  1
%%c<>
 71
     5
 42
93.0
  3
LC-DIM-L-0140-02-02
100
AcDbAlignedDimension
 13
355.411058
 23
735.85181
 33
0.0
 14
448.411058
 24
735.85181
 34
0.0
100
AcDbRotatedDimension
  0
ARC
  5
D6
102
{ACAD_REACTORS
330
12E
102
}
330
1F
100
AcDbEntity
  8
LC-001-002-----0
 62
     7
370
    50
100
AcDbCircle
 10
448.411058
 20
733.35181
 30
0.0
 40
1.5
100
AcDbArc
 50
90.0
 51
180.0
  0
ARC
  5
D7
102
{ACAD_REACTORS
330
12E
102
}
330
1F
100
AcDbEntity
  8
LC-001-002-----0
 62
     7
370
    50
100
AcDbCircle
 10
355.411058
 20
733.35181
 30
0.0
 40
1.5
100
AcDbArc
 50
0.0
 51
90.0
  0
ARC
  5
D8
102
{ACAD_REACTORS
330
12E
102
}
330
1F
100
AcDbEntity
  8
LC-001-002-----0
 62
     7
370
    50
100
AcDbCircle
 10
362.390876
 20
734.10181
 30
0.0
 40
0.7499999999998863
100
AcDbArc
 50
0.0
 51
180.0
  0
ARC
  5
D9
102
{ACAD_REACTORS
330
12E
102
}
330
1F
100
AcDbEntity
  8
LC-001-002-----0
 62
     7
370
    50
100
AcDbCircle
 10
378.767671
 20
733.458423
 30
0.0
 40
1.393386175457863
100
AcDbArc
 50
0.0
 51
180.0
  0
ARC
  5
DA
102
{ACAD_REACTORS
330
12E
102
}
330
1F
100
AcDbEntity
  8
LC-001-002-----0
 62
     7
370
    50
100
AcDbCircle
 10
401.911058
 20
733.352005
 30
0.0
 40
1.499804878052103
100
AcDbArc
 50
359.992546
 51
180.007454
  0
ARC
  5
DB
102
{ACAD_REACTORS
330
12E
102
}
330
1F
100
AcDbEntity
  8
LC-001-002-----0
 62
     7
370
    50
100
AcDbCircle
 10
425.054444
 20
733.458423
 30
0.0
 40
1.393386175457736
100
AcDbArc
 50
355.611771
 51
184.388229
  0
ARC
  5
DC
102
{ACAD_REACTORS
330
12E
102
}
330
1F
100
AcDbEntity
  8
LC-001-002-----0
 62
     7
370
    50
100
AcDbCircle
 10
441.795714
 20
733.737334
 30
0.0
 40
1.114475105757492
100
AcDbArc
 50
0.0
 51
180.0
  0
LINE
  5
DD
102
{ACAD_REACTORS
330
12E
102
}
330
1F
100
AcDbEntity
  8
LC-001-002-----0
 62
     7
370
    50
100
AcDbLine
 10
361.640876
 20
734.10181
 30
0.0
 11
361.640876
 21
733.35181
 31
0.0
  0
LINE
  5
DE
102
{ACAD_REACTORS
330
12E
102
}
330
1F
100
AcDbEntity
  8
LC-001-002-----0
 62
     7
370
    50
100
AcDbLine
 10
363.140876
 20
734.10181
 30
0.0
 11
363.140876
 21
733.35181
 31
0.0
  0
LINE
  5
DF
102
{ACAD_REACTORS
330
12E
102
}
330
1F
100
AcDbEntity
  8
LC-001-002-----0
 62
     7
370
    50
100
AcDbLine
 10
380.161058
 20
733.458423
 30
0.0
 11
380.161058
 21
733.35181
 31
0.0
  0
LINE
  5
E0
102
{ACAD_REACTORS
330
12E
102
}
330
1F
100
AcDbEntity
  8
LC-001-002-----0
 62
     7
370
    50
100
AcDbLine
 10
377.374285
 20
733.458423
 30
0.0
 11
377.374285
 21
733.35181
 31
0.0
  0
LINE
  5
E1
102
{ACAD_REACTORS
330
12E
102
}
330
1F
100
AcDbEntity
  8
LC-001-002-----0
 62
     7
370
    50
100
AcDbLine
 10
440.681239
 20
733.737334
 30
0.0
 11
440.681239
 21
733.35181
 31
0.0
  0
LINE
  5
E2
102
{ACAD_REACTORS
330
12E
102
}
330
1F
100
AcDbEntity
  8
LC-001-002-----0
 62
     7
370
    50
100
AcDbLine
 10
442.910189
 20
733.737334
 30
0.0
 11
442.910189
 21
733.35181
 31
0.0
  0
DIMENSION
  5
E3
330
1F
100
AcDbEntity
  8
LC-005-003-----0
 62
     7
370
    25
100
AcDbDimension
  2
*D9
 10
325.285058
 20
736.35181
 30
0.0
 11
294.485058
 21
754.330586
 31
0.0
 70
   160
 71
     5
 42
2.0
 53
90.0
  3
LC-DIM-L-0140-02-02
100
AcDbAlignedDimension
 13
330.911058
 23
738.35181
 33
0.0
 14
330.911058
 24
736.35181
 34
0.0
 50
90.0
100
AcDbRotatedDimension
  0
DIMENSION
  5
F1
330
1F
100
AcDbEntity
  8
LC-005-003-----0
 62
     7
370
    25
100
AcDbDimension
  2
*D10
 10
282.594473
 20
733.35181
 30
0.0
 11
251.794473
 21
760.234074
 31
0.0
 70
   160
 71
     5
 42
5.0
 53
90.0
  3
LC-DIM-L-0140-02-02
100
AcDbAlignedDimension
 13
330.911058
 23
738.35181
 33
0.0
 14
354.161058
 24
733.35181
 34
0.0
 50
90.0
100
AcDbRotatedDimension
  0
ARC
  5
FF
102
{ACAD_REACTORS
330
12D
102
}
330
1F
100
AcDbEntity
  8
LC-001-002-----0
 62
     7
370
    50
100
AcDbCircle
 10
401.911058
 20
578.79852
 30
0.0
 40
46.5000000000057
100
AcDbArc
 50
49.007811
 51
130.992189
  0
CIRCLE
  5
100
102
{ACAD_REACTORS
330
12D
102
}
330
1F
100
AcDbEntity
  8
LC-001-002-----0
 62
     7
370
    50
100
AcDbCircle
 10
401.911058
 20
578.79852
 30
0.0
 40
47.50000000000529
  0
LINE
  5
101
102
{ACAD_REACTORS
330
12E
102
}
330
1F
100
AcDbEntity
  8
LC-001-002-----0
 62
     7
370
    50
100
AcDbLine
 10
436.713454
 20
738.15181
 30
0.0
 11
401.911058
 21
738.15181
 31
0.0
  0
LINE
  5
102
102
{ACAD_REACTORS
330
12E
102
}
330
1F
100
AcDbEntity
  8
LC-001-002-----0
 62
     7
370
    50
100
AcDbLine
 10
437.718015
 20
736.85181
 30
0.0
 11
449.411058
 21
736.85181
 31
0.0
  0
LINE
  5
103
102
{ACAD_REACTORS
330
12E
102
}
330
1F
100
AcDbEntity
  8
LC-001-002-----0
 62
     7
370
    50
100
AcDbLine
 10
432.413018
 20
735.85181
 30
0.0
 11
401.911058
 21
735.85181
 31
0.0
  0
LINE
  5
104
102
{ACAD_REACTORS
330
12E
102
}
330
1F
100
AcDbEntity
  8
LC-001-002-----0
 62
     7
370
    50
100
AcDbLine
 10
433.347223
 20
738.15181
 30
0.0
 11
401.911058
 21
738.15181
 31
0.0
  0
LINE
  5
105
102
{ACAD_REACTORS
330
12E
102
}
330
1F
100
AcDbEntity
  8
LC-001-002-----0
 62
     7
370
    50
100
AcDbLine
 10
369.583929
 20
738.15181
 30
0.0
 11
401.911058
 21
738.15181
 31
0.0
  0
LINE
  5
106
102
{ACAD_REACTORS
330
12E
102
}
330
1F
100
AcDbEntity
  8
LC-001-002-----0
 62
     7
370
    50
100
AcDbLine
 10
366.1041
 20
736.85181
 30
0.0
 11
354.411058
 21
736.85181
 31
0.0
  0
LINE
  5
107
102
{ACAD_REACTORS
330
12E
102
}
330
1F
100
AcDbEntity
  8
LC-001-002-----0
 62
     7
370
    50
100
AcDbLine
 10
371.409097
 20
735.85181
 30
0.0
 11
401.911058
 21
735.85181
 31
0.0
  0
LINE
  5
108
102
{ACAD_REACTORS
330
12E
102
}
330
1F
100
AcDbEntity
  8
LC-001-002-----0
 62
     7
370
    50
100
AcDbLine
 10
370.474892
 20
738.15181
 30
0.0
 11
401.911058
 21
738.15181
 31
0.0
  0
INSERT
  5
10D
330
1F
100
AcDbEntity
  8
LC-006-002-3SD-0
 62
     7
370
    50
100
AcDbBlockReference
  2
KLON7
 10
0.0
 20
0.0
 30
0.0
  0
LINE
  5
10E
102
{ACAD_REACTORS
330
12E
102
}
330
1F
100
AcDbEntity
  8
LC-001-002-----0
 62
     7
370
    50
100
AcDbLine
 10
436.174996
 20
733.35181
 30
0.0
 11
401.911058
 21
733.35181
 31
0.0
  0
LINE
  5
10F
102
{ACAD_REACTORS
330
12E
102
}
330
1F
100
AcDbEntity
  8
LC-001-002-----0
 62
     7
370
    50
100
AcDbLine
 10
330.911058
 20
738.35181
 30
0.0
 11
401.911058
 21
738.35181
 31
0.0
  0
LINE
  5
110
102
{ACAD_REACTORS
330
12E
102
}
330
1F
100
AcDbEntity
  8
LC-001-002-----0
 62
     7
370
    50
100
AcDbLine
 10
366.812903
 20
733.35181
 30
0.0
 11
401.911058
 21
733.35181
 31
0.0
  0
LINE
  5
111
102
{ACAD_REACTORS
330
12D
102
}
330
1F
100
AcDbEntity
  8
LC-001-002-----0
 62
     7
370
    50
100
AcDbLine
 10
366.812903
 20
609.30048
 30
0.0
 11
366.1041
 21
610.009284
 31
0.0
  0
LINE
  5
112
102
{ACAD_REACTORS
330
12D
102
}
330
1F
100
AcDbEntity
  8
LC-001-002-----0
 62
     7
370
    50
100
AcDbLine
 10
371.409097
 20
543.700366
 30
0.0
 11
370.700294
 21
542.991562
 31
0.0
  0
LINE
  5
113
102
{ACAD_REACTORS
330
12D
102
}
330
1F
100
AcDbEntity
  8
LC-001-002-----0
 62
     7
370
    50
100
AcDbLine
 10
437.009212
 20
548.29656
 30
0.0
 11
437.718015
 21
547.587756
 31
0.0
  0
LINE
  5
114
102
{ACAD_REACTORS
330
12D
102
}
330
1F
100
AcDbEntity
  8
LC-001-002-----0
 62
     7
370
    50
100
AcDbLine
 10
371.409097
 20
613.896674
 30
0.0
 11
370.700294
 21
614.605478
 31
0.0
  0
LINE
  5
115
102
{ACAD_REACTORS
330
12D
102
}
330
1F
100
AcDbEntity
  8
LC-001-002-----0
 62
     7
370
    50
100
AcDbLine
 10
366.812903
 20
548.29656
 30
0.0
 11
366.1041
 21
547.587756
 31
0.0
  0
LINE
  5
116
102
{ACAD_REACTORS
330
12D
102
}
330
1F
100
AcDbEntity
  8
LC-001-002-----0
 62
     7
370
    50
100
AcDbLine
 10
432.413018
 20
543.700366
 30
0.0
 11
433.121821
 21
542.991562
 31
0.0
  0
ARC
  5
117
102
{ACAD_REACTORS
330
12D
102
}
330
1F
100
AcDbEntity
  8
LC-001-002-----0
 62
     7
370
    50
100
AcDbCircle
 10
401.911058
 20
578.79852
 30
0.0
 40
46.50000000000574
100
AcDbArc
 50
139.007811
 51
220.992189
  0
ARC
  5
118
102
{ACAD_REACTORS
330
12D
102
}
330
1F
100
AcDbEntity
  8
LC-001-002-----0
 62
     7
370
    50
100
AcDbCircle
 10
401.911058
 20
578.79852
 30
0.0
 40
46.50000000000566
100
AcDbArc
 50
229.007811
 51
310.992189
  0
ARC
  5
119
102
{ACAD_REACTORS
330
12D
102
}
330
1F
100
AcDbEntity
  8
LC-001-002-----0
 62
     7
370
    50
100
AcDbCircle
 10
401.911058
 20
578.79852
 30
0.0
 40
46.50000000000558
100
AcDbArc
 50
319.007811
 51
40.992189
  0
LINE
  5
11A
102
{ACAD_REACTORS
330
12F
102
}
330
1F
100
AcDbEntity
  8
LC-001-002-----0
 62
     7
370
    50
100
AcDbLine
 10
439.12722
 20
733.35181
 30
0.0
 11
439.527679
 21
733.35181
 31
0.0
  0
LINE
  5
11B
102
{ACAD_REACTORS
330
12F
102
}
330
1F
100
AcDbEntity
  8
LC-001-002-----0
 62
     7
370
    50
100
AcDbLine
 10
439.527679
 20
733.35181
 30
0.0
 11
439.920223
 21
733.35181
 31
0.0
  0
LINE
  5
11C
102
{ACAD_REACTORS
330
12E
102
}
330
1F
100
AcDbEntity
  8
LC-001-002-----0
 62
     7
370
    50
100
AcDbLine
 10
370.700294
 20
736.85181
 30
0.0
 11
371.409097
 21
735.85181
 31
0.0
  0
LINE
  5
11D
102
{ACAD_REACTORS
330
12E
102
}
330
1F
100
AcDbEntity
  8
LC-001-002-----0
 62
     7
370
    50
100
AcDbLine
 10
371.409097
 20
735.85181
 30
0.0
 11
371.409097
 21
733.35181
 31
0.0
  0
LINE
  5
11E
102
{ACAD_REACTORS
330
12E
102
}
330
1F
100
AcDbEntity
  8
LC-001-002-----0
 62
     7
370
    50
100
AcDbLine
 10
366.812903
 20
735.85181
 30
0.0
 11
366.812903
 21
733.35181
 31
0.0
  0
LINE
  5
11F
102
{ACAD_REACTORS
330
12E
102
}
330
1F
100
AcDbEntity
  8
LC-001-002-----0
 62
     7
370
    50
100
AcDbLine
 10
366.1041
 20
736.85181
 30
0.0
 11
366.812903
 21
735.85181
 31
0.0
  0
DIMENSION
  5
120
330
1F
100
AcDbEntity
  8
LC-005-003-----0
 62
     7
370
    25
100
AcDbDimension
  2
*D12
 10
472.911058
 20
823.200009
 30
0.0
 11
400.555919
 21
854.000009
 31
0.0
 70
   160
  1
%%c<>
 71
     5
 42
142.0
  3
LC-DIM-L-0140-02-02
100
AcDbAlignedDimension
 13
330.911058
 23
736.35181
 33
0.0
 14
472.911058
 24
736.35181
 34
0.0
100
AcDbRotatedDimension
  0
ENDSEC
  0
SECTION
  2
OBJECTS
  0
DICTIONARY
  5
C
330
0
100
AcDbDictionary
281
     1
  3
ACAD_GROUP
350
D
  3
ACAD_LAYOUT
350
1A
  3
ACAD_MLINESTYLE
350
17
  3
ACAD_PLOTSETTINGS
350
19
  3
ACAD_PLOTSTYLENAME
350
E
  0
DICTIONARY
  5
D
102
{ACAD_REACTORS
330
C
102
}
330
C
100
AcDbDictionary
281
     1
  3
LCGROUP133
350
12F
  3
LCGROUP22
350
12E
  3
LCGROUP24
350
12D
  0
DICTIONARY
  5
1A
102
{ACAD_REACTORS
330
C
102
}
330
C
100
AcDbDictionary
281
     1
  3
Layout1
350
1E
  3
Layout2
350
26
  3
Model
350
22
  0
DICTIONARY
  5
17
102
{ACAD_REACTORS
330
C
102
}
330
C
100
AcDbDictionary
281
     1
  3
Standard
350
18
  0
DICTIONARY
  5
19
102
{ACAD_REACTORS
330
C
102
}
330
C
100
AcDbDictionary
281
     1
  0
ACDBDICTIONARYWDFLT
  5
E
102
{ACAD_REACTORS
330
C
102
}
330
C
100
AcDbDictionary
281
     1
  3
Normal
350
F
100
AcDbDictionaryWithDefault
340
F
  0
GROUP
  5
12F
102
{ACAD_REACTORS
330
D
102
}
330
D
100
AcDbGroup
300
Körper-3231-LCMaster-LCGROUP22
 70
     1
 71
     1
340
11A
340
11B
  0
GROUP
  5
12E
102
{ACAD_REACTORS
330
D
102
}
330
D
100
AcDbGroup
300
GRP432
 70
     1
 71
     1
340
31
340
33
340
34
340
35
340
36
340
37
340
3B
340
3C
340
3D
340
3E
340
3F
340
40
340
41
340
4C
340
59
340
5A
340
5B
340
5C
340
5D
340
5E
340
5F
340
60
340
61
340
62
340
64
340
65
340
66
340
75
340
76
340
77
340
78
340
79
340
7A
340
7B
340
7C
340
7D
340
83
340
91
340
92
340
93
340
94
340
95
340
96
340
97
340
98
340
99
340
9A
340
9B
340
9C
340
9D
340
AB
340
D6
340
D7
340
D8
340
D9
340
DA
340
DB
340
DC
340
DD
340
DE
340
DF
340
E0
340
E1
340
E2
340
101
340
102
340
103
340
104
340
105
340
106
340
107
340
108
340
10E
340
10F
340
110
340
11C
340
11D
340
11E
340
11F
  0
GROUP
  5
12D
102
{ACAD_REACTORS
330
D
102
}
330
D
100
AcDbGroup
300
GRP441
 70
     1
 71
     1
340
32
340
38
340
43
340
44
340
45
340
AC
340
AD
340
AE
340
AF
340
B0
340
B1
340
B2
340
B3
340
B4
340
B5
340
B6
340
B7
340
FF
340
100
340
111
340
112
340
113
340
114
340
115
340
116
340
117
340
118
340
119
  0
LAYOUT
  5
1E
102
{ACAD_REACTORS
330
1A
102
}
330
1A
100
AcDbPlotSettings
  1

  2

  4

  6

 40
0.0
 41
0.0
 42
0.0
 43
0.0
 44
0.0
 45
0.0
 46
0.0
 47
0.0
 48
0.0
 49
0.0
140
0.0
141
0.0
142
1.0
143
1.0
 70
   688
 72
     0
 73
     0
 74
     5
  7

 75
    16
147
1.0
148
0.0
149
0.0
100
AcDbLayout
  1
Layout1
 70
     1
 71
     1
 10
-42.247235
 20
368.499264
 11
797.752766
 21
962.499264
 12
0.0
 22
0.0
 32
0.0
 14
-42.247235
 24
368.499264
 34
0.0
 15
797.752766
 25
962.499264
 35
0.0
146
0.0
 13
0.0
 23
0.0
 33
0.0
 16
1.0
 26
0.0
 36
0.0
 17
0.0
 27
1.0
 37
0.0
 76
     0
330
1B
  0
LAYOUT
  5
26
102
{ACAD_REACTORS
330
1A
102
}
330
1A
100
AcDbPlotSettings
  1

  2

  4

  6

 40
0.0
 41
0.0
 42
0.0
 43
0.0
 44
0.0
 45
0.0
 46
0.0
 47
0.0
 48
0.0
 49
0.0
140
0.0
141
0.0
142
1.0
143
1.0
 70
   688
 72
     0
 73
     0
 74
     5
  7

 75
    16
147
1.0
148
0.0
149
0.0
100
AcDbLayout
  1
Layout2
 70
     1
 71
     2
 10
0.0
 20
0.0
 11
0.0
 21
0.0
 12
0.0
 22
0.0
 32
0.0
 14
0.0
 24
0.0
 34
0.0
 15
0.0
 25
0.0
 35
0.0
146
0.0
 13
0.0
 23
0.0
 33
0.0
 16
1.0
 26
0.0
 36
0.0
 17
0.0
 27
1.0
 37
0.0
 76
     0
330
23
  0
LAYOUT
  5
22
102
{ACAD_REACTORS
330
1A
102
}
330
1A
100
AcDbPlotSettings
  1

  2

  4

  6

 40
0.0
 41
0.0
 42
0.0
 43
0.0
 44
0.0
 45
0.0
 46
0.0
 47
0.0
 48
0.0
 49
0.0
140
0.0
141
0.0
142
1.0
143
1.0
 70
  1776
 72
     0
 73
     0
 74
     0
  7

 75
     0
147
1.0
148
0.0
149
0.0
100
AcDbLayout
  1
Model
 70
     1
 71
     0
 10
-42.247235
 20
368.499264
 11
797.752766
 21
962.499264
 12
193.745215
 22
434.90652
 32
0.0
 14
-42.247235
 24
368.499264
 34
0.0
 15
797.752766
 25
962.499264
 35
0.0
146
0.0
 13
0.0
 23
0.0
 33
0.0
 16
1.0
 26
0.0
 36
0.0
 17
0.0
 27
1.0
 37
0.0
 76
     0
330
1F
  0
MLINESTYLE
  5
18
102
{ACAD_REACTORS
330
17
102
}
330
17
100
AcDbMlineStyle
  2
Standard
 70
     0
  3

 62
   256
 51
90.0
 52
90.0
 71
     2
 49
0.5
 62
   256
  6
BYLAYER
 49
-0.5
 62
   256
  6
BYLAYER
  0
ACDBPLACEHOLDER
  5
F
102
{ACAD_REACTORS
330
E
102
}
330
E
  0
ENDSEC
  0
EOF
