  0
SECTION
  2
HEADER
  9
$ACADVER
  1
AC1009
  9
$INSBASE
 10
0.0
 20
0.0
 30
0.0
  9
$EXTMIN
 10
0.0
 20
0.0
 30
0.0
  9
$EXTMAX
 10
840.0
 20
594.0
 30
0.0
  9
$LIMMIN
 10
0.0
 20
0.0
  9
$LIMMAX
 10
840.0
 20
594.0
  9
$ORTHOMODE
 70
     0
  9
$REGENMODE
 70
     1
  9
$FILLMODE
 70
     1
  9
$QTEXTMODE
 70
     0
  9
$MIRRTEXT
 70
     1
  9
$DRAGMODE
 70
     2
  9
$LTSCALE
 40
2.0
  9
$OSMODE
 70
     0
  9
$ATTMODE
 70
     1
  9
$TEXTSIZE
 40
0.2
  9
$TRACEWID
 40
0.05
  9
$TEXTSTYLE
  7
STANDARD
  9
$CLAYER
  8
0
  9
$CELTYPE
  6
BYLAYER
  9
$CECOLOR
 62
     7
  9
$DIMSCALE
 40
2.0
  9
$DIMASZ
 40
3.5
  9
$DIMEXO
 40
0.0625
  9
$DIMDLI
 40
0.38
  9
$DIMRND
 40
0.0
  9
$DIMDLE
 40
0.0
  9
$DIMEXE
 40
0.18
  9
$DIMTP
 40
0.0
  9
$DIMTM
 40
0.0
  9
$DIMTXT
 40
3.5
  9
$DIMCEN
 40
0.09
  9
$DIMTSZ
 40
0.0
  9
$DIMTOL
 70
     0
  9
$DIMLIM
 70
     0
  9
$DIMTIH
 70
     1
  9
$DIMTOH
 70
     1
  9
$DIMSE1
 70
     0
  9
$DIMSE2
 70
     0
  9
$DIMTAD
 70
     1
  9
$DIMZIN
 70
     0
  9
$DIMBLK
  1

  9
$DIMASO
 70
     1
  9
$DIMSHO
 70
     1
  9
$DIMPOST
  1

  9
$DIMAPOST
  1

  9
$DIMALT
 70
     0
  9
$DIMALTD
 70
     2
  9
$DIMALTF
 40
25.4
  9
$DIMLFAC
 40
1.0
  9
$DIMTOFL
 70
     0
  9
$DIMTVP
 40
0.0
  9
$DIMTIX
 70
     0
  9
$DIMSOXD
 70
     0
  9
$DIMSAH
 70
     0
  9
$DIMBLK1
  1

  9
$DIMBLK2
  1

  9
$DIMSTYLE
  2
STANDARD
  9
$DIMCLRD
 70
     0
  9
$DIMCLRE
 70
     0
  9
$DIMCLRT
 70
     0
  9
$DIMTFAC
 40
1.0
  9
$DIMGAP
 40
0.09
  9
$LUNITS
 70
     2
  9
$LUPREC
 70
     2
  9
$AXISMODE
 70
     0
  9
$AXISUNIT
 10
0.0
 20
0.0
  9
$SKETCHINC
 40
0.1
  9
$FILLETRAD
 40
0.0
  9
$AUNITS
 70
     0
  9
$AUPREC
 70
     0
  9
$MENU
  1
acad
  9
$ELEVATION
 40
0.0
  9
$PELEVATION
 40
0.0
  9
$THICKNESS
 40
0.0
  9
$LIMCHECK
 70
     0
  9
$BLIPMODE
 70
     1
  9
$CHAMFERA
 40
0.0
  9
$CHAMFERB
 40
0.0
  9
$SKPOLY
 70
     0
  9
$TDCREATE
 40
0.000000000
  9
$TDUPDATE
 40
0.000000000
  9
$TDINDWG
 40
0.0000000000
  9
$TDUSRTIMER
 40
0.0000000000
  9
$USRTIMER
 70
     1
  9
$ANGBASE
 50
0.0
  9
$ANGDIR
 70
     0
  9
$PDMODE
 70
     0
  9
$PDSIZE
 40
0.0
  9
$PLINEWID
 40
0.0
  9
$COORDS
 70
     0
  9
$SPLFRAME
 70
     0
  9
$SPLINETYPE
 70
     6
  9
$SPLINESEGS
 70
     8
  9
$ATTDIA
 70
     0
  9
$ATTREQ
 70
     1
  9
$HANDLING
 70
     1
  9
$HANDSEED
  5
203
  9
$SURFTAB1
 70
     6
  9
$SURFTAB2
 70
     6
  9
$SURFTYPE
 70
     6
  9
$SURFU
 70
     6
  9
$SURFV
 70
     6
  9
$UCSNAME
  2

  9
$UCSORG
 10
0.0
 20
0.0
 30
0.0
  9
$UCSXDIR
 10
1.0
 20
0.0
 30
0.0
  9
$UCSYDIR
 10
0.0
 20
1.0
 30
0.0
  9
$PUCSNAME
  2

  9
$PUCSORG
 10
0.0
 20
0.0
 30
0.0
  9
$PUCSXDIR
 10
1.0
 20
0.0
 30
0.0
  9
$PUCSYDIR
 10
0.0
 20
1.0
 30
0.0
  9
$USERI1
 70
     0
  9
$USERI2
 70
     0
  9
$USERI3
 70
     0
  9
$USERI4
 70
     0
  9
$USERI5
 70
     0
  9
$USERR1
 40
0.0
  9
$USERR2
 40
0.0
  9
$USERR3
 40
0.0
  9
$USERR4
 40
0.0
  9
$USERR5
 40
0.0
  9
$WORLDVIEW
 70
     1
  9
$SHADEDGE
 70
     3
  9
$SHADEDIF
 70
    70
  9
$TILEMODE
 70
     1
  9
$MAXACTVP
 70
    16
  9
$PINSBASE
 10
0.0
 20
0.0
 30
0.0
  9
$PLIMCHECK
 70
     0
  9
$PEXTMIN
 10
1.000000E+20
 20
1.000000E+20
 30
1.000000E+20
  9
$PEXTMAX
 10
-1.000000E+20
 20
-1.000000E+20
 30
-1.000000E+20
  9
$PLIMMIN
 10
0.0
 20
0.0
  9
$PLIMMAX
 10
840.0
 20
594.0
  9
$UNITMODE
 70
     0
  9
$VISRETAIN
 70
     0
  9
$PLINEGEN
 70
     1
  9
$PSLTSCALE
 70
     0
  9
$TREEDEPTH
 70
  3020
  9
$DWGCODEPAGE
  3
dos850
  0
ENDSEC
  0
SECTION
  2
TABLES
  0
TABLE
  2
VPORT
 70
     1
  0
VPORT
  2
*ACTIVE
 70
     0
 10
0.0
 20
0.0
 11
1.0
 21
1.0
 12
420.0
 22
297.0
 13
0.0
 23
0.0
 14
1.0
 24
1.0
 15
0.0
 25
0.0
 16
0.0
 26
0.0
 36
1.0
 17
0.0
 27
0.0
 37
0.0
 40
594.0
 41
1.604229
 42
50.0
 43
0.0
 44
0.0
 50
0.0
 51
0.0
 71
     0
 72
   100
 73
     1
 74
     1
 75
     0
 76
     0
 77
     0
 78
     0
  0
ENDTAB
  0
TABLE
  2
LTYPE
 70
     2
  0
LTYPE
  2
CONTINUOUS
 70
    64
  3
Solid line
 72
    65
 73
     0
 40
0.0
  0
LTYPE
  2
DASHDOT
 70
    64
  3
__ . __ . __ . __ . __
 72
    65
 73
     4
 40
4.0
 49
2.0
 49
-0.9
 49
0.2
 49
-0.9
  0
ENDTAB
  0
TABLE
  2
LAYER
 70
    10
  0
LAYER
  2
0
 70
     0
 62
     7
  6
CONTINUOUS
  0
LAYER
  2
LC-INFO-1-2-MM-A3-0
 70
     1
 62
    -1
  6
CONTINUOUS
  0
LAYER
  2
LC-003-003-MTH-0
 70
     0
 62
     2
  6
CONTINUOUS
  0
LAYER
  2
LC-004-003-MTG-0
 70
     0
 62
     2
  6
CONTINUOUS
  0
LAYER
  2
LC-002-003-----0
 70
     0
 62
     2
  6
CONTINUOUS
  0
LAYER
  2
LC-006-005-----0
 70
     0
 62
     2
  6
CONTINUOUS
  0
LAYER
  2
LC-008-000-----0
 70
     0
 62
     7
  6
CONTINUOUS
  0
LAYER
  2
LC-001-002-----0
 70
     0
 62
     2
  6
DASHDOT
  0
LAYER
  2
LC-005-002-RND-0
 70
     0
 62
     2
  6
DASHDOT
  0
LAYER
  2
LC-000
 70
     0
 62
     7
  6
CONTINUOUS
  0
ENDTAB
  0
TABLE
  2
STYLE
 70
     5
  0
STYLE
  2
STANDARD
 70
     0
 40
0.0
 41
1.0
 50
0.0
 71
     0
 42
0.0
  3
txt
  4

  0
STYLE
  2
LC-STANDARD
 70
    64
 40
0.0
 41
1.0
 50
0.0
 71
     0
 42
3.5
  3
MONOTXT
  4

  0
STYLE
  2
LC-TXTSTYLE-150-400-0-0-D2
 70
    64
 40
0.0
 41
1.0
 50
15.0
 71
     0
 42
3.5
  3
MONOTXT
  4

  0
STYLE
  2
LC-TXTSTYLE-0-400-0-0-DIN3
 70
    64
 40
0.0
 41
1.0
 50
0.0
 71
     0
 42
3.5
  3
MONOTXT
  4

  0
STYLE
  2
LC-TXTSTYLE-150-400-0-0-D4
 70
    64
 40
0.0
 41
1.0
 50
15.0
 71
     0
 42
3.5
  3
LC-STANDARD
  4

  0
ENDTAB
  0
TABLE
  2
VIEW
 70
     0
  0
ENDTAB
  0
TABLE
  2
UCS
 70
     0
  0
ENDTAB
  0
TABLE
  2
APPID
 70
     1
  0
APPID
  2
ACAD
 70
     0
  0
ENDTAB
  0
TABLE
  2
DIMSTYLE
 70
     3
  0
DIMSTYLE
  2
STANDARD
 70
     0
  3

  4

  5

  6

  7

 40
1.0
 41
0.18
 42
0.0625
 43
0.38
 44
0.18
 45
0.0
 46
0.0
 47
0.0
 48
0.0
 71
     0
 72
     0
 73
     1
 74
     1
 75
     0
 76
     0
 77
     0
 78
     0
140
0.18
141
0.09
142
0.0
143
25.4
144
1.0
145
0.0
146
1.0
147
0.09
170
     0
171
     2
172
     0
173
     0
174
     0
175
     0
176
     0
177
     0
178
     0
  0
DIMSTYLE
  2
LC-STANDARD
 70
     0
  3

  4

  5

  6

  7

 40
1.0
 41
3.5
 42
0.0
 43
7.5
 44
1.8
 45
0.0
 46
0.0
 47
0.0
 48
0.0
 71
     0
 72
     0
 73
     0
 74
     0
 75
     0
 76
     0
 77
     1
 78
     8
140
3.5
141
0.0
142
0.0
143
25.4
144
1.0
145
0.0
146
0.71
147
1.5
170
     0
171
     2
172
     1
173
     0
174
     0
175
     0
176
     0
177
     0
178
     3
  0
DIMSTYLE
  2
LC-DIM-L-0090-02-02
 70
     0
  3

  4

  5

  6

  7

 40
2.0
 41
3.5
 42
0.0
 43
7.5
 44
1.8
 45
0.0
 46
0.0
 47
0.0
 48
0.0
 71
     0
 72
     0
 73
     0
 74
     0
 75
     0
 76
     0
 77
     1
 78
     8
140
9.0
141
0.0
142
0.0
143
25.4
144
1.0
145
0.0
146
0.71
147
1.5
170
     0
171
     2
172
     0
173
     0
174
     0
175
     0
176
     2
177
     2
178
     6
  0
ENDTAB
  0
ENDSEC
  0
SECTION
  2
BLOCKS
  0
BLOCK
  8
0
  5
24
  2
*D0
 70
    65
 10
0.0
 20
0.0
 30
0.0
  3
*D0
  0
LINE
  8
LC-003-003-MTH-0
  6
CONTINUOUS
  5
26
 10
392.12237
 20
365.88557
 30
0.0
 11
450.8
 21
365.88557
 31
0.0
  0
LINE
  8
LC-003-003-MTH-0
  6
CONTINUOUS
  5
27
 10
392.12237
 20
459.740628
 30
0.0
 11
450.8
 21
459.740628
 31
0.0
  0
LINE
  8
LC-004-003-MTG-0
  6
CONTINUOUS
  5
29
 10
440.0
 20
365.88557
 30
0.0
 11
440.0
 21
459.740628
 31
0.0
  0
LINE
  8
LC-002-003-----0
  6
CONTINUOUS
  5
2B
 10
437.650529
 20
383.731577
 30
0.0
 11
440.0
 21
365.88557
 31
0.0
  0
LINE
  8
LC-002-003-----0
  6
CONTINUOUS
  5
2C
 10
440.0
 20
365.88557
 30
0.0
 11
442.349471
 21
383.731577
 31
0.0
  0
LINE
  8
LC-002-003-----0
  6
CONTINUOUS
  5
2D
 10
442.349471
 20
383.731577
 30
0.0
 11
437.650529
 21
383.731577
 31
0.0
  0
LINE
  8
LC-002-003-----0
  6
CONTINUOUS
  5
2E
 10
438.261391
 20
383.771615
 30
0.0
 11
440.0
 21
370.56557
 31
0.0
  0
LINE
  8
LC-002-003-----0
  6
CONTINUOUS
  5
2F
 10
440.0
 20
370.56557
 30
0.0
 11
441.738609
 21
383.771615
 31
0.0
  0
LINE
  8
LC-002-003-----0
  6
CONTINUOUS
  5
30
 10
438.872254
 20
383.811653
 30
0.0
 11
440.0
 21
375.24557
 31
0.0
  0
LINE
  8
LC-002-003-----0
  6
CONTINUOUS
  5
31
 10
440.0
 20
375.24557
 30
0.0
 11
441.127746
 21
383.811653
 31
0.0
  0
LINE
  8
LC-002-003-----0
  6
CONTINUOUS
  5
32
 10
439.483116
 20
383.851692
 30
0.0
 11
440.0
 21
379.92557
 31
0.0
  0
LINE
  8
LC-002-003-----0
  6
CONTINUOUS
  5
33
 10
440.0
 20
379.92557
 30
0.0
 11
440.516884
 21
383.851692
 31
0.0
  0
LINE
  8
LC-002-003-----0
  6
CONTINUOUS
  5
34
 10
442.349471
 20
441.89462
 30
0.0
 11
440.0
 21
459.740628
 31
0.0
  0
LINE
  8
LC-002-003-----0
  6
CONTINUOUS
  5
35
 10
440.0
 20
459.740628
 30
0.0
 11
437.650529
 21
441.89462
 31
0.0
  0
LINE
  8
LC-002-003-----0
  6
CONTINUOUS
  5
36
 10
437.650529
 20
441.89462
 30
0.0
 11
442.349471
 21
441.89462
 31
0.0
  0
LINE
  8
LC-002-003-----0
  6
CONTINUOUS
  5
37
 10
441.738609
 20
441.854582
 30
0.0
 11
440.0
 21
455.060628
 31
0.0
  0
LINE
  8
LC-002-003-----0
  6
CONTINUOUS
  5
38
 10
440.0
 20
455.060628
 30
0.0
 11
438.261391
 21
441.854582
 31
0.0
  0
LINE
  8
LC-002-003-----0
  6
CONTINUOUS
  5
39
 10
441.127746
 20
441.814544
 30
0.0
 11
440.0
 21
450.380628
 31
0.0
  0
LINE
  8
LC-002-003-----0
  6
CONTINUOUS
  5
3A
 10
440.0
 20
450.380628
 30
0.0
 11
438.872254
 21
441.814544
 31
0.0
  0
LINE
  8
LC-002-003-----0
  6
CONTINUOUS
  5
3B
 10
440.516884
 20
441.774506
 30
0.0
 11
440.0
 21
445.700628
 31
0.0
  0
LINE
  8
LC-002-003-----0
  6
CONTINUOUS
  5
3C
 10
440.0
 20
445.700628
 30
0.0
 11
439.483116
 21
441.774506
 31
0.0
  0
TEXT
  8
LC-002-003-----0
  6
CONTINUOUS
 62
     6
  5
3E
 10
429.568001
 20
379.405782
 30
0.0
 40
18.0
  1
DN90
 50
90.0
 41
0.9
 51
15.0
  7
LC-TXTSTYLE-150-400-0-0-D0
 72
     1
 11
429.568001
 21
405.810506
 31
0.0
  0
ENDBLK
  8
0
  5
3F
  0
BLOCK
  8
0
  5
41
  2
*X1
 70
    65
 10
376.525626
 20
457.581247
 30
0.0
  3
*X1
  0
LINE
  8
LC-006-005-----0
  6
CONTINUOUS
  5
43
 10
385.02047
 20
459.690946
 30
0.0
 11
385.232733
 21
459.903209
 31
0.0
  0
LINE
  8
LC-006-005-----0
  6
CONTINUOUS
  5
44
 10
384.648058
 20
459.601377
 30
0.0
 11
385.232733
 21
460.186052
 31
0.0
  0
LINE
  8
LC-006-005-----0
  6
CONTINUOUS
  5
45
 10
384.275646
 20
459.511807
 30
0.0
 11
385.232733
 21
460.468895
 31
0.0
  0
LINE
  8
LC-006-005-----0
  6
CONTINUOUS
  5
46
 10
383.903233
 20
459.422238
 30
0.0
 11
385.228143
 21
460.747147
 31
0.0
  0
LINE
  8
LC-006-005-----0
  6
CONTINUOUS
  5
47
 10
383.530821
 20
459.332668
 30
0.0
 11
385.202717
 21
461.004564
 31
0.0
  0
LINE
  8
LC-006-005-----0
  6
CONTINUOUS
  5
48
 10
383.158409
 20
459.243098
 30
0.0
 11
385.15874
 21
461.243429
 31
0.0
  0
LINE
  8
LC-006-005-----0
  6
CONTINUOUS
  5
49
 10
382.785996
 20
459.153529
 30
0.0
 11
385.099105
 21
461.466637
 31
0.0
  0
LINE
  8
LC-006-005-----0
  6
CONTINUOUS
  5
4A
 10
382.413584
 20
459.063959
 30
0.0
 11
385.025788
 21
461.676164
 31
0.0
  0
LINE
  8
LC-006-005-----0
  6
CONTINUOUS
  5
4B
 10
382.041172
 20
458.974389
 30
0.0
 11
384.94019
 21
461.873408
 31
0.0
  0
LINE
  8
LC-006-005-----0
  6
CONTINUOUS
  5
4C
 10
381.668759
 20
458.88482
 30
0.0
 11
384.843315
 21
462.059375
 31
0.0
  0
LINE
  8
LC-006-005-----0
  6
CONTINUOUS
  5
4D
 10
381.296347
 20
458.79525
 30
0.0
 11
384.735889
 21
462.234792
 31
0.0
  0
LINE
  8
LC-006-005-----0
  6
CONTINUOUS
  5
4E
 10
380.923934
 20
458.70568
 30
0.0
 11
384.618424
 21
462.40017
 31
0.0
  0
LINE
  8
LC-006-005-----0
  6
CONTINUOUS
  5
4F
 10
380.551522
 20
458.616111
 30
0.0
 11
384.491261
 21
462.555849
 31
0.0
  0
LINE
  8
LC-006-005-----0
  6
CONTINUOUS
  5
50
 10
380.17911
 20
458.526541
 30
0.0
 11
384.354595
 21
462.702026
 31
0.0
  0
LINE
  8
LC-006-005-----0
  6
CONTINUOUS
  5
51
 10
379.806697
 20
458.436972
 30
0.0
 11
384.213173
 21
462.843447
 31
0.0
  0
LINE
  8
LC-006-005-----0
  6
CONTINUOUS
  5
52
 10
379.434285
 20
458.347402
 30
0.0
 11
384.07134
 21
462.984456
 31
0.0
  0
LINE
  8
LC-006-005-----0
  6
CONTINUOUS
  5
53
 10
379.061873
 20
458.257832
 30
0.0
 11
383.922401
 21
463.11836
 31
0.0
  0
LINE
  8
LC-006-005-----0
  6
CONTINUOUS
  5
54
 10
378.68946
 20
458.168263
 30
0.0
 11
383.763916
 21
463.242719
 31
0.0
  0
LINE
  8
LC-006-005-----0
  6
CONTINUOUS
  5
55
 10
378.317048
 20
458.078693
 30
0.0
 11
383.59565
 21
463.357295
 31
0.0
  0
LINE
  8
LC-006-005-----0
  6
CONTINUOUS
  5
56
 10
377.944636
 20
457.989123
 30
0.0
 11
383.417214
 21
463.461702
 31
0.0
  0
LINE
  8
LC-006-005-----0
  6
CONTINUOUS
  5
57
 10
377.629072
 20
457.956403
 30
0.0
 11
383.22804
 21
463.555371
 31
0.0
  0
LINE
  8
LC-006-005-----0
  6
CONTINUOUS
  5
58
 10
377.429402
 20
458.039575
 30
0.0
 11
383.02733
 21
463.637503
 31
0.0
  0
LINE
  8
LC-006-005-----0
  6
CONTINUOUS
  5
59
 10
377.292049
 20
458.185065
 30
0.0
 11
382.813975
 21
463.70699
 31
0.0
  0
LINE
  8
LC-006-005-----0
  6
CONTINUOUS
  5
5A
 10
377.219765
 20
458.395623
 30
0.0
 11
382.586433
 21
463.762291
 31
0.0
  0
LINE
  8
LC-006-005-----0
  6
CONTINUOUS
  5
5B
 10
377.385573
 20
458.844275
 30
0.0
 11
382.342504
 21
463.801205
 31
0.0
  0
LINE
  8
LC-006-005-----0
  6
CONTINUOUS
  5
5C
 10
378.108411
 20
459.849955
 30
0.0
 11
382.078924
 21
463.820468
 31
0.0
  0
LINE
  8
LC-006-005-----0
  6
CONTINUOUS
  5
5D
 10
378.831248
 20
460.855635
 30
0.0
 11
381.797333
 21
463.82172
 31
0.0
  0
LINE
  8
LC-006-005-----0
  6
CONTINUOUS
  5
5E
 10
379.514491
 20
461.82172
 30
0.0
 11
381.514491
 21
463.82172
 31
0.0
  0
LINE
  8
LC-006-005-----0
  6
CONTINUOUS
  5
5F
 10
379.231648
 20
461.82172
 30
0.0
 11
381.231648
 21
463.82172
 31
0.0
  0
LINE
  8
LC-006-005-----0
  6
CONTINUOUS
  5
60
 10
378.948805
 20
461.82172
 30
0.0
 11
380.948805
 21
463.82172
 31
0.0
  0
LINE
  8
LC-006-005-----0
  6
CONTINUOUS
  5
61
 10
378.665963
 20
461.82172
 30
0.0
 11
380.665963
 21
463.82172
 31
0.0
  0
LINE
  8
LC-006-005-----0
  6
CONTINUOUS
  5
62
 10
378.38312
 20
461.82172
 30
0.0
 11
380.38312
 21
463.82172
 31
0.0
  0
LINE
  8
LC-006-005-----0
  6
CONTINUOUS
  5
63
 10
378.100277
 20
461.82172
 30
0.0
 11
380.100277
 21
463.82172
 31
0.0
  0
LINE
  8
LC-006-005-----0
  6
CONTINUOUS
  5
64
 10
377.817434
 20
461.82172
 30
0.0
 11
379.817434
 21
463.82172
 31
0.0
  0
LINE
  8
LC-006-005-----0
  6
CONTINUOUS
  5
65
 10
377.534592
 20
461.82172
 30
0.0
 11
379.534592
 21
463.82172
 31
0.0
  0
LINE
  8
LC-006-005-----0
  6
CONTINUOUS
  5
66
 10
377.251749
 20
461.82172
 30
0.0
 11
379.251749
 21
463.82172
 31
0.0
  0
LINE
  8
LC-006-005-----0
  6
CONTINUOUS
  5
67
 10
376.968906
 20
461.82172
 30
0.0
 11
378.968906
 21
463.82172
 31
0.0
  0
LINE
  8
LC-006-005-----0
  6
CONTINUOUS
  5
68
 10
376.686064
 20
461.82172
 30
0.0
 11
378.686064
 21
463.82172
 31
0.0
  0
LINE
  8
LC-006-005-----0
  6
CONTINUOUS
  5
69
 10
376.525626
 20
461.944126
 30
0.0
 11
378.403221
 21
463.82172
 31
0.0
  0
LINE
  8
LC-006-005-----0
  6
CONTINUOUS
  5
6A
 10
376.525626
 20
462.226968
 30
0.0
 11
378.120378
 21
463.82172
 31
0.0
  0
LINE
  8
LC-006-005-----0
  6
CONTINUOUS
  5
6B
 10
376.525626
 20
462.509811
 30
0.0
 11
377.837535
 21
463.82172
 31
0.0
  0
LINE
  8
LC-006-005-----0
  6
CONTINUOUS
  5
6C
 10
376.525626
 20
462.792654
 30
0.0
 11
377.554693
 21
463.82172
 31
0.0
  0
LINE
  8
LC-006-005-----0
  6
CONTINUOUS
  5
6D
 10
376.525626
 20
463.075496
 30
0.0
 11
377.27185
 21
463.82172
 31
0.0
  0
LINE
  8
LC-006-005-----0
  6
CONTINUOUS
  5
6E
 10
376.525626
 20
463.358339
 30
0.0
 11
376.989007
 21
463.82172
 31
0.0
  0
LINE
  8
LC-006-005-----0
  6
CONTINUOUS
  5
6F
 10
376.525626
 20
463.641182
 30
0.0
 11
376.706165
 21
463.82172
 31
0.0
  0
ENDBLK
  8
0
  5
70
  0
BLOCK
  8
0
  5
72
  2
*X2
 70
    65
 10
376.525626
 20
361.72758
 30
0.0
  3
*X2
  0
LINE
  8
LC-006-005-----0
  6
CONTINUOUS
  5
73
 10
383.953392
 20
362.457346
 30
0.0
 11
384.502967
 21
363.006921
 31
0.0
  0
LINE
  8
LC-006-005-----0
  6
CONTINUOUS
  5
74
 10
383.190447
 20
361.977244
 30
0.0
 11
384.983069
 21
363.769866
 31
0.0
  0
LINE
  8
LC-006-005-----0
  6
CONTINUOUS
  5
75
 10
382.757066
 20
361.826705
 30
0.0
 11
385.133608
 21
364.203247
 31
0.0
  0
LINE
  8
LC-006-005-----0
  6
CONTINUOUS
  5
76
 10
382.403405
 20
361.755887
 30
0.0
 11
385.204426
 21
364.556908
 31
0.0
  0
LINE
  8
LC-006-005-----0
  6
CONTINUOUS
  5
77
 10
382.09398
 20
361.729305
 30
0.0
 11
385.231008
 21
364.866333
 31
0.0
  0
LINE
  8
LC-006-005-----0
  6
CONTINUOUS
  5
78
 10
381.809412
 20
361.72758
 30
0.0
 11
385.232733
 21
365.150901
 31
0.0
  0
LINE
  8
LC-006-005-----0
  6
CONTINUOUS
  5
79
 10
381.52657
 20
361.72758
 30
0.0
 11
385.232733
 21
365.433743
 31
0.0
  0
LINE
  8
LC-006-005-----0
  6
CONTINUOUS
  5
7A
 10
381.243727
 20
361.72758
 30
0.0
 11
385.232733
 21
365.716586
 31
0.0
  0
LINE
  8
LC-006-005-----0
  6
CONTINUOUS
  5
7B
 10
380.960884
 20
361.72758
 30
0.0
 11
385.077856
 21
365.844551
 31
0.0
  0
LINE
  8
LC-006-005-----0
  6
CONTINUOUS
  5
7C
 10
380.678041
 20
361.72758
 30
0.0
 11
384.849851
 21
365.899389
 31
0.0
  0
LINE
  8
LC-006-005-----0
  6
CONTINUOUS
  5
7D
 10
380.395199
 20
361.72758
 30
0.0
 11
384.621846
 21
365.954227
 31
0.0
  0
LINE
  8
LC-006-005-----0
  6
CONTINUOUS
  5
7E
 10
380.112356
 20
361.72758
 30
0.0
 11
384.393841
 21
366.009065
 31
0.0
  0
LINE
  8
LC-006-005-----0
  6
CONTINUOUS
  5
7F
 10
379.829513
 20
361.72758
 30
0.0
 11
384.165837
 21
366.063903
 31
0.0
  0
LINE
  8
LC-006-005-----0
  6
CONTINUOUS
  5
80
 10
379.546671
 20
361.72758
 30
0.0
 11
383.937832
 21
366.118741
 31
0.0
  0
LINE
  8
LC-006-005-----0
  6
CONTINUOUS
  5
81
 10
379.263828
 20
361.72758
 30
0.0
 11
383.709827
 21
366.173579
 31
0.0
  0
LINE
  8
LC-006-005-----0
  6
CONTINUOUS
  5
82
 10
378.980985
 20
361.72758
 30
0.0
 11
383.481822
 21
366.228417
 31
0.0
  0
LINE
  8
LC-006-005-----0
  6
CONTINUOUS
  5
83
 10
378.698142
 20
361.72758
 30
0.0
 11
383.253817
 21
366.283255
 31
0.0
  0
LINE
  8
LC-006-005-----0
  6
CONTINUOUS
  5
84
 10
378.4153
 20
361.72758
 30
0.0
 11
383.025812
 21
366.338092
 31
0.0
  0
LINE
  8
LC-006-005-----0
  6
CONTINUOUS
  5
85
 10
378.132457
 20
361.72758
 30
0.0
 11
382.797808
 21
366.39293
 31
0.0
  0
LINE
  8
LC-006-005-----0
  6
CONTINUOUS
  5
86
 10
377.849614
 20
361.72758
 30
0.0
 11
382.569803
 21
366.447768
 31
0.0
  0
LINE
  8
LC-006-005-----0
  6
CONTINUOUS
  5
87
 10
377.566772
 20
361.72758
 30
0.0
 11
382.341798
 21
366.502606
 31
0.0
  0
LINE
  8
LC-006-005-----0
  6
CONTINUOUS
  5
88
 10
377.283929
 20
361.72758
 30
0.0
 11
379.283929
 21
363.72758
 31
0.0
  0
LINE
  8
LC-006-005-----0
  6
CONTINUOUS
  5
89
 10
379.424553
 20
363.868203
 30
0.0
 11
382.113793
 21
366.557444
 31
0.0
  0
LINE
  8
LC-006-005-----0
  6
CONTINUOUS
  5
8A
 10
377.001086
 20
361.72758
 30
0.0
 11
379.001086
 21
363.72758
 31
0.0
  0
LINE
  8
LC-006-005-----0
  6
CONTINUOUS
  5
8B
 10
379.306272
 20
364.032766
 30
0.0
 11
381.885788
 21
366.612282
 31
0.0
  0
LINE
  8
LC-006-005-----0
  6
CONTINUOUS
  5
8C
 10
376.718243
 20
361.72758
 30
0.0
 11
378.718243
 21
363.72758
 31
0.0
  0
LINE
  8
LC-006-005-----0
  6
CONTINUOUS
  5
8D
 10
379.187992
 20
364.197328
 30
0.0
 11
381.657784
 21
366.66712
 31
0.0
  0
LINE
  8
LC-006-005-----0
  6
CONTINUOUS
  5
8E
 10
376.525626
 20
361.817805
 30
0.0
 11
378.435401
 21
363.72758
 31
0.0
  0
LINE
  8
LC-006-005-----0
  6
CONTINUOUS
  5
8F
 10
379.069712
 20
364.361891
 30
0.0
 11
381.429779
 21
366.721958
 31
0.0
  0
LINE
  8
LC-006-005-----0
  6
CONTINUOUS
  5
90
 10
376.525626
 20
362.100648
 30
0.0
 11
378.152558
 21
363.72758
 31
0.0
  0
LINE
  8
LC-006-005-----0
  6
CONTINUOUS
  5
91
 10
378.951432
 20
364.526454
 30
0.0
 11
381.201774
 21
366.776796
 31
0.0
  0
LINE
  8
LC-006-005-----0
  6
CONTINUOUS
  5
92
 10
376.525626
 20
362.383491
 30
0.0
 11
377.869715
 21
363.72758
 31
0.0
  0
LINE
  8
LC-006-005-----0
  6
CONTINUOUS
  5
93
 10
378.833152
 20
364.691016
 30
0.0
 11
380.973769
 21
366.831633
 31
0.0
  0
LINE
  8
LC-006-005-----0
  6
CONTINUOUS
  5
94
 10
376.525626
 20
362.666334
 30
0.0
 11
377.586873
 21
363.72758
 31
0.0
  0
LINE
  8
LC-006-005-----0
  6
CONTINUOUS
  5
95
 10
378.714872
 20
364.855579
 30
0.0
 11
380.745764
 21
366.886471
 31
0.0
  0
LINE
  8
LC-006-005-----0
  6
CONTINUOUS
  5
96
 10
376.525626
 20
362.949176
 30
0.0
 11
377.30403
 21
363.72758
 31
0.0
  0
LINE
  8
LC-006-005-----0
  6
CONTINUOUS
  5
97
 10
378.596592
 20
365.020141
 30
0.0
 11
380.517759
 21
366.941309
 31
0.0
  0
LINE
  8
LC-006-005-----0
  6
CONTINUOUS
  5
98
 10
376.525626
 20
363.232019
 30
0.0
 11
377.021187
 21
363.72758
 31
0.0
  0
LINE
  8
LC-006-005-----0
  6
CONTINUOUS
  5
99
 10
378.478311
 20
365.184704
 30
0.0
 11
380.289755
 21
366.996147
 31
0.0
  0
LINE
  8
LC-006-005-----0
  6
CONTINUOUS
  5
9A
 10
376.525626
 20
363.514862
 30
0.0
 11
376.738344
 21
363.72758
 31
0.0
  0
LINE
  8
LC-006-005-----0
  6
CONTINUOUS
  5
9B
 10
378.360031
 20
365.349267
 30
0.0
 11
380.06175
 21
367.050985
 31
0.0
  0
LINE
  8
LC-006-005-----0
  6
CONTINUOUS
  5
9C
 10
378.241751
 20
365.513829
 30
0.0
 11
379.833745
 21
367.105823
 31
0.0
  0
LINE
  8
LC-006-005-----0
  6
CONTINUOUS
  5
9D
 10
378.123471
 20
365.678392
 30
0.0
 11
379.60574
 21
367.160661
 31
0.0
  0
LINE
  8
LC-006-005-----0
  6
CONTINUOUS
  5
9E
 10
378.005191
 20
365.842954
 30
0.0
 11
379.377735
 21
367.215499
 31
0.0
  0
LINE
  8
LC-006-005-----0
  6
CONTINUOUS
  5
9F
 10
377.886911
 20
366.007517
 30
0.0
 11
379.149731
 21
367.270337
 31
0.0
  0
LINE
  8
LC-006-005-----0
  6
CONTINUOUS
  5
A0
 10
377.768631
 20
366.172079
 30
0.0
 11
378.921726
 21
367.325175
 31
0.0
  0
LINE
  8
LC-006-005-----0
  6
CONTINUOUS
  5
A1
 10
377.650351
 20
366.336642
 30
0.0
 11
378.693721
 21
367.380012
 31
0.0
  0
LINE
  8
LC-006-005-----0
  6
CONTINUOUS
  5
A2
 10
377.53207
 20
366.501205
 30
0.0
 11
378.465716
 21
367.43485
 31
0.0
  0
LINE
  8
LC-006-005-----0
  6
CONTINUOUS
  5
A3
 10
377.41379
 20
366.665767
 30
0.0
 11
378.237711
 21
367.489688
 31
0.0
  0
LINE
  8
LC-006-005-----0
  6
CONTINUOUS
  5
A4
 10
377.296016
 20
366.830835
 30
0.0
 11
378.009706
 21
367.544526
 31
0.0
  0
LINE
  8
LC-006-005-----0
  6
CONTINUOUS
  5
A5
 10
377.22083
 20
367.038493
 30
0.0
 11
377.779135
 21
367.596797
 31
0.0
  0
ENDBLK
  8
0
  5
A6
  0
BLOCK
  8
0
  5
A8
  2
*X3
 70
    65
 10
257.366595
 20
207.77465
 30
0.0
  3
*X3
  0
LINE
  8
LC-006-005-----0
  6
CONTINUOUS
  5
A9
 10
258.686338
 20
207.77465
 30
0.0
 11
260.865195
 21
209.953507
 31
0.0
  0
LINE
  8
LC-006-005-----0
  6
CONTINUOUS
  5
AA
 10
257.366595
 20
209.283334
 30
0.0
 11
260.865195
 21
212.781934
 31
0.0
  0
LINE
  8
LC-006-005-----0
  6
CONTINUOUS
  5
AB
 10
257.366595
 20
212.111761
 30
0.0
 11
260.865195
 21
215.610361
 31
0.0
  0
LINE
  8
LC-006-005-----0
  6
CONTINUOUS
  5
AC
 10
257.366595
 20
214.940188
 30
0.0
 11
260.865195
 21
218.438788
 31
0.0
  0
LINE
  8
LC-006-005-----0
  6
CONTINUOUS
  5
AD
 10
257.366595
 20
217.768615
 30
0.0
 11
260.865195
 21
221.267215
 31
0.0
  0
LINE
  8
LC-006-005-----0
  6
CONTINUOUS
  5
AE
 10
257.366595
 20
220.597042
 30
0.0
 11
260.865195
 21
224.095642
 31
0.0
  0
LINE
  8
LC-006-005-----0
  6
CONTINUOUS
  5
AF
 10
257.366595
 20
223.42547
 30
0.0
 11
260.865195
 21
226.92407
 31
0.0
  0
LINE
  8
LC-006-005-----0
  6
CONTINUOUS
  5
B0
 10
257.366595
 20
226.253897
 30
0.0
 11
260.865195
 21
229.752497
 31
0.0
  0
LINE
  8
LC-006-005-----0
  6
CONTINUOUS
  5
B1
 10
257.366595
 20
229.082324
 30
0.0
 11
260.865195
 21
232.580924
 31
0.0
  0
LINE
  8
LC-006-005-----0
  6
CONTINUOUS
  5
B2
 10
257.366595
 20
231.910751
 30
0.0
 11
260.865195
 21
235.409351
 31
0.0
  0
LINE
  8
LC-006-005-----0
  6
CONTINUOUS
  5
B3
 10
257.366595
 20
234.739178
 30
0.0
 11
260.865195
 21
238.237778
 31
0.0
  0
LINE
  8
LC-006-005-----0
  6
CONTINUOUS
  5
B4
 10
257.366595
 20
237.567605
 30
0.0
 11
260.865195
 21
241.066205
 31
0.0
  0
LINE
  8
LC-006-005-----0
  6
CONTINUOUS
  5
B5
 10
257.366595
 20
240.396032
 30
0.0
 11
260.865195
 21
243.894632
 31
0.0
  0
LINE
  8
LC-006-005-----0
  6
CONTINUOUS
  5
B6
 10
257.366595
 20
243.224459
 30
0.0
 11
260.865195
 21
246.723059
 31
0.0
  0
LINE
  8
LC-006-005-----0
  6
CONTINUOUS
  5
B7
 10
257.366595
 20
246.052887
 30
0.0
 11
260.865195
 21
249.551487
 31
0.0
  0
LINE
  8
LC-006-005-----0
  6
CONTINUOUS
  5
B8
 10
257.366595
 20
248.881314
 30
0.0
 11
260.865195
 21
252.379914
 31
0.0
  0
LINE
  8
LC-006-005-----0
  6
CONTINUOUS
  5
B9
 10
257.366595
 20
251.709741
 30
0.0
 11
260.865195
 21
255.208341
 31
0.0
  0
LINE
  8
LC-006-005-----0
  6
CONTINUOUS
  5
BA
 10
257.366595
 20
254.538168
 30
0.0
 11
260.865195
 21
258.036768
 31
0.0
  0
LINE
  8
LC-006-005-----0
  6
CONTINUOUS
  5
BB
 10
257.366595
 20
257.366595
 30
0.0
 11
260.865195
 21
260.865195
 31
0.0
  0
LINE
  8
LC-006-005-----0
  6
CONTINUOUS
  5
BC
 10
257.366595
 20
260.195022
 30
0.0
 11
260.865195
 21
263.693622
 31
0.0
  0
LINE
  8
LC-006-005-----0
  6
CONTINUOUS
  5
BD
 10
257.366595
 20
263.023449
 30
0.0
 11
260.865195
 21
266.522049
 31
0.0
  0
LINE
  8
LC-006-005-----0
  6
CONTINUOUS
  5
BE
 10
257.366595
 20
265.851876
 30
0.0
 11
260.865195
 21
269.350476
 31
0.0
  0
LINE
  8
LC-006-005-----0
  6
CONTINUOUS
  5
BF
 10
257.366595
 20
268.680304
 30
0.0
 11
260.865195
 21
272.178904
 31
0.0
  0
LINE
  8
LC-006-005-----0
  6
CONTINUOUS
  5
C0
 10
257.366595
 20
271.508731
 30
0.0
 11
260.865195
 21
275.007331
 31
0.0
  0
LINE
  8
LC-006-005-----0
  6
CONTINUOUS
  5
C1
 10
257.366595
 20
274.337158
 30
0.0
 11
260.865195
 21
277.835758
 31
0.0
  0
LINE
  8
LC-006-005-----0
  6
CONTINUOUS
  5
C2
 10
257.366595
 20
277.165585
 30
0.0
 11
260.865195
 21
280.664185
 31
0.0
  0
LINE
  8
LC-006-005-----0
  6
CONTINUOUS
  5
C3
 10
257.366595
 20
279.994012
 30
0.0
 11
260.865195
 21
283.492612
 31
0.0
  0
LINE
  8
LC-006-005-----0
  6
CONTINUOUS
  5
C4
 10
257.366595
 20
282.822439
 30
0.0
 11
260.865195
 21
286.321039
 31
0.0
  0
LINE
  8
LC-006-005-----0
  6
CONTINUOUS
  5
C5
 10
257.366595
 20
285.650866
 30
0.0
 11
260.865195
 21
289.149466
 31
0.0
  0
LINE
  8
LC-006-005-----0
  6
CONTINUOUS
  5
C6
 10
257.366595
 20
288.479293
 30
0.0
 11
260.865195
 21
291.977893
 31
0.0
  0
LINE
  8
LC-006-005-----0
  6
CONTINUOUS
  5
C7
 10
257.366595
 20
291.307721
 30
0.0
 11
260.865195
 21
294.806321
 31
0.0
  0
LINE
  8
LC-006-005-----0
  6
CONTINUOUS
  5
C8
 10
257.366595
 20
294.136148
 30
0.0
 11
260.865195
 21
297.634748
 31
0.0
  0
LINE
  8
LC-006-005-----0
  6
CONTINUOUS
  5
C9
 10
257.366595
 20
296.964575
 30
0.0
 11
260.865195
 21
300.463175
 31
0.0
  0
LINE
  8
LC-006-005-----0
  6
CONTINUOUS
  5
CA
 10
257.366595
 20
299.793002
 30
0.0
 11
260.865195
 21
303.291602
 31
0.0
  0
LINE
  8
LC-006-005-----0
  6
CONTINUOUS
  5
CB
 10
257.366595
 20
302.621429
 30
0.0
 11
260.865195
 21
306.120029
 31
0.0
  0
LINE
  8
LC-006-005-----0
  6
CONTINUOUS
  5
CC
 10
257.366595
 20
305.449856
 30
0.0
 11
260.865195
 21
308.948456
 31
0.0
  0
LINE
  8
LC-006-005-----0
  6
CONTINUOUS
  5
CD
 10
257.366595
 20
308.278283
 30
0.0
 11
260.865195
 21
311.776883
 31
0.0
  0
LINE
  8
LC-006-005-----0
  6
CONTINUOUS
  5
CE
 10
257.366595
 20
311.10671
 30
0.0
 11
260.865195
 21
314.60531
 31
0.0
  0
LINE
  8
LC-006-005-----0
  6
CONTINUOUS
  5
CF
 10
257.366595
 20
313.935138
 30
0.0
 11
260.865195
 21
317.433738
 31
0.0
  0
LINE
  8
LC-006-005-----0
  6
CONTINUOUS
  5
D0
 10
257.366595
 20
316.763565
 30
0.0
 11
260.865195
 21
320.262165
 31
0.0
  0
LINE
  8
LC-006-005-----0
  6
CONTINUOUS
  5
D1
 10
257.366595
 20
319.591992
 30
0.0
 11
260.865195
 21
323.090592
 31
0.0
  0
LINE
  8
LC-006-005-----0
  6
CONTINUOUS
  5
D2
 10
257.366595
 20
322.420419
 30
0.0
 11
260.865195
 21
325.919019
 31
0.0
  0
LINE
  8
LC-006-005-----0
  6
CONTINUOUS
  5
D3
 10
257.366595
 20
325.248846
 30
0.0
 11
260.865195
 21
328.747446
 31
0.0
  0
LINE
  8
LC-006-005-----0
  6
CONTINUOUS
  5
D4
 10
391.858377
 20
459.740628
 30
0.0
 11
392.12237
 21
460.004621
 31
0.0
  0
LINE
  8
LC-006-005-----0
  6
CONTINUOUS
  5
D5
 10
257.366595
 20
328.077273
 30
0.0
 11
260.865195
 21
331.575873
 31
0.0
  0
LINE
  8
LC-006-005-----0
  6
CONTINUOUS
  5
D6
 10
389.02995
 20
459.740628
 30
0.0
 11
392.12237
 21
462.833048
 31
0.0
  0
LINE
  8
LC-006-005-----0
  6
CONTINUOUS
  5
D7
 10
257.366595
 20
330.9057
 30
0.0
 11
260.865195
 21
334.4043
 31
0.0
  0
LINE
  8
LC-006-005-----0
  6
CONTINUOUS
  5
D8
 10
386.815267
 20
460.354372
 30
0.0
 11
390.998048
 21
464.537153
 31
0.0
  0
LINE
  8
LC-006-005-----0
  6
CONTINUOUS
  5
D9
 10
257.366595
 20
333.734127
 30
0.0
 11
260.865195
 21
337.232727
 31
0.0
  0
LINE
  8
LC-006-005-----0
  6
CONTINUOUS
  5
DA
 10
385.401053
 20
461.768586
 30
0.0
 11
388.372272
 21
464.739804
 31
0.0
  0
LINE
  8
LC-006-005-----0
  6
CONTINUOUS
  5
DB
 10
257.366595
 20
336.562555
 30
0.0
 11
260.865195
 21
340.061155
 31
0.0
  0
LINE
  8
LC-006-005-----0
  6
CONTINUOUS
  5
DC
 10
383.98684
 20
463.182799
 30
0.0
 11
387.60243
 21
466.79839
 31
0.0
  0
LINE
  8
LC-006-005-----0
  6
CONTINUOUS
  5
DD
 10
257.366595
 20
339.390982
 30
0.0
 11
260.865195
 21
342.889582
 31
0.0
  0
LINE
  8
LC-006-005-----0
  6
CONTINUOUS
  5
DE
 10
382.512767
 20
464.537153
 30
0.0
 11
386.010233
 21
468.03462
 31
0.0
  0
LINE
  8
LC-006-005-----0
  6
CONTINUOUS
  5
DF
 10
257.366595
 20
342.219409
 30
0.0
 11
260.865195
 21
345.718009
 31
0.0
  0
LINE
  8
LC-006-005-----0
  6
CONTINUOUS
  5
E0
 10
373.3889
 20
458.241714
 30
0.0
 11
375.034748
 21
459.887562
 31
0.0
  0
LINE
  8
LC-006-005-----0
  6
CONTINUOUS
  5
E1
 10
379.68434
 20
464.537153
 30
0.0
 11
383.181806
 21
468.03462
 31
0.0
  0
LINE
  8
LC-006-005-----0
  6
CONTINUOUS
  5
E2
 10
257.366595
 20
345.047836
 30
0.0
 11
260.865195
 21
348.546436
 31
0.0
  0
LINE
  8
LC-006-005-----0
  6
CONTINUOUS
  5
E3
 10
370.560473
 20
458.241714
 30
0.0
 11
375.034748
 21
462.715989
 31
0.0
  0
LINE
  8
LC-006-005-----0
  6
CONTINUOUS
  5
E4
 10
376.855912
 20
464.537153
 30
0.0
 11
380.353379
 21
468.03462
 31
0.0
  0
LINE
  8
LC-006-005-----0
  6
CONTINUOUS
  5
E5
 10
257.366595
 20
347.876263
 30
0.0
 11
260.865195
 21
351.374863
 31
0.0
  0
LINE
  8
LC-006-005-----0
  6
CONTINUOUS
  5
E6
 10
367.732046
 20
458.241714
 30
0.0
 11
377.524952
 21
468.03462
 31
0.0
  0
LINE
  8
LC-006-005-----0
  6
CONTINUOUS
  5
E7
 10
257.366595
 20
350.70469
 30
0.0
 11
260.865195
 21
354.20329
 31
0.0
  0
LINE
  8
LC-006-005-----0
  6
CONTINUOUS
  5
E8
 10
364.903619
 20
458.241714
 30
0.0
 11
369.600216
 21
462.938312
 31
0.0
  0
LINE
  8
LC-006-005-----0
  6
CONTINUOUS
  5
E9
 10
371.637209
 20
464.975305
 30
0.0
 11
374.696525
 21
468.03462
 31
0.0
  0
LINE
  8
LC-006-005-----0
  6
CONTINUOUS
  5
EA
 10
257.366595
 20
353.533117
 30
0.0
 11
260.865195
 21
357.031717
 31
0.0
  0
LINE
  8
LC-006-005-----0
  6
CONTINUOUS
  5
EB
 10
362.075192
 20
458.241714
 30
0.0
 11
366.771789
 21
462.938312
 31
0.0
  0
LINE
  8
LC-006-005-----0
  6
CONTINUOUS
  5
EC
 10
257.366595
 20
356.361544
 30
0.0
 11
260.865195
 21
359.860144
 31
0.0
  0
LINE
  8
LC-006-005-----0
  6
CONTINUOUS
  5
ED
 10
359.246764
 20
458.241714
 30
0.0
 11
363.943362
 21
462.938312
 31
0.0
  0
LINE
  8
LC-006-005-----0
  6
CONTINUOUS
  5
EE
 10
257.366595
 20
359.189972
 30
0.0
 11
260.865195
 21
362.688572
 31
0.0
  0
LINE
  8
LC-006-005-----0
  6
CONTINUOUS
  5
EF
 10
356.418337
 20
458.241714
 30
0.0
 11
361.114935
 21
462.938312
 31
0.0
  0
LINE
  8
LC-006-005-----0
  6
CONTINUOUS
  5
F0
 10
257.366595
 20
362.018399
 30
0.0
 11
260.865195
 21
365.516999
 31
0.0
  0
LINE
  8
LC-006-005-----0
  6
CONTINUOUS
  5
F1
 10
353.58991
 20
458.241714
 30
0.0
 11
358.286508
 21
462.938312
 31
0.0
  0
LINE
  8
LC-006-005-----0
  6
CONTINUOUS
  5
F2
 10
257.366595
 20
364.846826
 30
0.0
 11
260.866395
 21
368.346625
 31
0.0
  0
LINE
  8
LC-006-005-----0
  6
CONTINUOUS
  5
F3
 10
350.761483
 20
458.241714
 30
0.0
 11
355.458081
 21
462.938312
 31
0.0
  0
LINE
  8
LC-006-005-----0
  6
CONTINUOUS
  5
F4
 10
257.366595
 20
367.675253
 30
0.0
 11
260.929887
 21
371.238545
 31
0.0
  0
LINE
  8
LC-006-005-----0
  6
CONTINUOUS
  5
F5
 10
344.05061
 20
454.359268
 30
0.0
 11
351.123608
 21
461.432266
 31
0.0
  0
LINE
  8
LC-006-005-----0
  6
CONTINUOUS
  5
F6
 10
351.946431
 20
462.255089
 30
0.0
 11
354.444622
 21
464.75328
 31
0.0
  0
LINE
  8
LC-006-005-----0
  6
CONTINUOUS
  5
F7
 10
257.405608
 20
370.542693
 30
0.0
 11
261.097723
 21
374.234808
 31
0.0
  0
LINE
  8
LC-006-005-----0
  6
CONTINUOUS
  5
F8
 10
341.182437
 20
454.319522
 30
0.0
 11
344.874552
 21
458.011637
 31
0.0
  0
LINE
  8
LC-006-005-----0
  6
CONTINUOUS
  5
F9
 10
351.946431
 20
465.083516
 30
0.0
 11
354.398427
 21
467.535512
 31
0.0
  0
LINE
  8
LC-006-005-----0
  6
CONTINUOUS
  5
FA
 10
257.541709
 20
373.507221
 30
0.0
 11
261.382817
 21
377.348329
 31
0.0
  0
LINE
  8
LC-006-005-----0
  6
CONTINUOUS
  5
FB
 10
338.068916
 20
454.034428
 30
0.0
 11
341.910024
 21
457.875536
 31
0.0
  0
LINE
  8
LC-006-005-----0
  6
CONTINUOUS
  5
FC
 10
257.786324
 20
376.580263
 30
0.0
 11
261.801537
 21
380.595476
 31
0.0
  0
LINE
  8
LC-006-005-----0
  6
CONTINUOUS
  5
FD
 10
334.821769
 20
453.615708
 30
0.0
 11
338.836981
 21
457.630921
 31
0.0
  0
LINE
  8
LC-006-005-----0
  6
CONTINUOUS
  5
FE
 10
258.15339
 20
379.775756
 30
0.0
 11
262.375161
 21
383.997527
 31
0.0
  0
LINE
  8
LC-006-005-----0
  6
CONTINUOUS
  5
FF
 10
331.419718
 20
453.042084
 30
0.0
 11
335.641489
 21
457.263855
 31
0.0
  0
LINE
  8
LC-006-005-----0
  6
CONTINUOUS
  5
100
 10
258.660671
 20
383.111465
 30
0.0
 11
263.132231
 21
387.583025
 31
0.0
  0
LINE
  8
LC-006-005-----0
  6
CONTINUOUS
  5
101
 10
327.83422
 20
452.285013
 30
0.0
 11
332.30578
 21
456.756574
 31
0.0
  0
LINE
  8
LC-006-005-----0
  6
CONTINUOUS
  5
102
 10
259.33143
 20
386.61065
 30
0.0
 11
264.112611
 21
391.391832
 31
0.0
  0
LINE
  8
LC-006-005-----0
  6
CONTINUOUS
  5
103
 10
324.025413
 20
451.304634
 30
0.0
 11
328.806595
 21
456.085815
 31
0.0
  0
LINE
  8
LC-006-005-----0
  6
CONTINUOUS
  5
104
 10
260.197153
 20
390.304801
 30
0.0
 11
265.375043
 21
395.482691
 31
0.0
  0
LINE
  8
LC-006-005-----0
  6
CONTINUOUS
  5
105
 10
319.934554
 20
450.042202
 30
0.0
 11
325.112444
 21
455.220092
 31
0.0
  0
LINE
  8
LC-006-005-----0
  6
CONTINUOUS
  5
106
 10
261.302351
 20
394.238426
 30
0.0
 11
267.012828
 21
399.948903
 31
0.0
  0
LINE
  8
LC-006-005-----0
  6
CONTINUOUS
  5
107
 10
315.468342
 20
448.404417
 30
0.0
 11
321.178819
 21
454.114894
 31
0.0
  0
LINE
  8
LC-006-005-----0
  6
CONTINUOUS
  5
108
 10
262.713699
 20
398.478201
 30
0.0
 11
269.191854
 21
404.956356
 31
0.0
  0
LINE
  8
LC-006-005-----0
  6
CONTINUOUS
  5
109
 10
310.460889
 20
446.225391
 30
0.0
 11
316.939044
 21
452.703546
 31
0.0
  0
LINE
  8
LC-006-005-----0
  6
CONTINUOUS
  5
10A
 10
264.539661
 20
403.13259
 30
0.0
 11
272.269592
 21
410.862521
 31
0.0
  0
LINE
  8
LC-006-005-----0
  6
CONTINUOUS
  5
10B
 10
304.554724
 20
443.147653
 30
0.0
 11
312.284655
 21
450.877584
 31
0.0
  0
LINE
  8
LC-006-005-----0
  6
CONTINUOUS
  5
10C
 10
266.980571
 20
408.401927
 30
0.0
 11
277.438574
 21
418.85993
 31
0.0
  0
LINE
  8
LC-006-005-----0
  6
CONTINUOUS
  5
10D
 10
296.557315
 20
437.978671
 30
0.0
 11
307.015318
 21
448.436674
 31
0.0
  0
LINE
  8
LC-006-005-----0
  6
CONTINUOUS
  5
10E
 10
270.500815
 20
414.750598
 30
0.0
 11
300.666647
 21
444.91643
 31
0.0
  0
LINE
  8
LC-006-005-----0
  6
CONTINUOUS
  5
10F
 10
277.077727
 20
424.155938
 30
0.0
 11
291.261307
 21
438.339518
 31
0.0
  0
ENDBLK
  8
0
  5
110
  0
BLOCK
  8
0
  5
112
  2
*X4
 70
    65
 10
344.223995
 20
207.77465
 30
0.0
  3
*X4
  0
LINE
  8
LC-006-005-----0
  6
CONTINUOUS
  5
113
 10
357.681287
 20
207.77465
 30
0.0
 11
357.718595
 21
207.811958
 31
0.0
  0
LINE
  8
LC-006-005-----0
  6
CONTINUOUS
  5
114
 10
354.85286
 20
207.77465
 30
0.0
 11
357.718595
 21
210.640385
 31
0.0
  0
LINE
  8
LC-006-005-----0
  6
CONTINUOUS
  5
115
 10
354.219995
 20
209.970212
 30
0.0
 11
357.718595
 21
213.468812
 31
0.0
  0
LINE
  8
LC-006-005-----0
  6
CONTINUOUS
  5
116
 10
354.219995
 20
212.798639
 30
0.0
 11
357.718595
 21
216.297239
 31
0.0
  0
LINE
  8
LC-006-005-----0
  6
CONTINUOUS
  5
117
 10
354.219995
 20
215.627066
 30
0.0
 11
357.718595
 21
219.125666
 31
0.0
  0
LINE
  8
LC-006-005-----0
  6
CONTINUOUS
  5
118
 10
354.219995
 20
218.455493
 30
0.0
 11
357.718595
 21
221.954093
 31
0.0
  0
LINE
  8
LC-006-005-----0
  6
CONTINUOUS
  5
119
 10
354.219995
 20
221.28392
 30
0.0
 11
357.718595
 21
224.78252
 31
0.0
  0
LINE
  8
LC-006-005-----0
  6
CONTINUOUS
  5
11A
 10
354.219995
 20
224.112347
 30
0.0
 11
357.718595
 21
227.610947
 31
0.0
  0
LINE
  8
LC-006-005-----0
  6
CONTINUOUS
  5
11B
 10
354.219995
 20
226.940775
 30
0.0
 11
357.718595
 21
230.439374
 31
0.0
  0
LINE
  8
LC-006-005-----0
  6
CONTINUOUS
  5
11C
 10
354.219995
 20
229.769202
 30
0.0
 11
357.718595
 21
233.267802
 31
0.0
  0
LINE
  8
LC-006-005-----0
  6
CONTINUOUS
  5
11D
 10
354.219995
 20
232.597629
 30
0.0
 11
357.718595
 21
236.096229
 31
0.0
  0
LINE
  8
LC-006-005-----0
  6
CONTINUOUS
  5
11E
 10
354.219995
 20
235.426056
 30
0.0
 11
357.718595
 21
238.924656
 31
0.0
  0
LINE
  8
LC-006-005-----0
  6
CONTINUOUS
  5
11F
 10
354.219995
 20
238.254483
 30
0.0
 11
357.718595
 21
241.753083
 31
0.0
  0
LINE
  8
LC-006-005-----0
  6
CONTINUOUS
  5
120
 10
354.219995
 20
241.08291
 30
0.0
 11
357.718595
 21
244.58151
 31
0.0
  0
LINE
  8
LC-006-005-----0
  6
CONTINUOUS
  5
121
 10
354.219995
 20
243.911337
 30
0.0
 11
357.718595
 21
247.409937
 31
0.0
  0
LINE
  8
LC-006-005-----0
  6
CONTINUOUS
  5
122
 10
354.219995
 20
246.739764
 30
0.0
 11
357.718595
 21
250.238364
 31
0.0
  0
LINE
  8
LC-006-005-----0
  6
CONTINUOUS
  5
123
 10
354.219995
 20
249.568191
 30
0.0
 11
357.718595
 21
253.066791
 31
0.0
  0
LINE
  8
LC-006-005-----0
  6
CONTINUOUS
  5
124
 10
354.219995
 20
252.396619
 30
0.0
 11
357.718595
 21
255.895219
 31
0.0
  0
LINE
  8
LC-006-005-----0
  6
CONTINUOUS
  5
125
 10
354.219995
 20
255.225046
 30
0.0
 11
357.718595
 21
258.723646
 31
0.0
  0
LINE
  8
LC-006-005-----0
  6
CONTINUOUS
  5
126
 10
354.219995
 20
258.053473
 30
0.0
 11
357.718595
 21
261.552073
 31
0.0
  0
LINE
  8
LC-006-005-----0
  6
CONTINUOUS
  5
127
 10
354.219995
 20
260.8819
 30
0.0
 11
357.718595
 21
264.3805
 31
0.0
  0
LINE
  8
LC-006-005-----0
  6
CONTINUOUS
  5
128
 10
354.219995
 20
263.710327
 30
0.0
 11
357.718595
 21
267.208927
 31
0.0
  0
LINE
  8
LC-006-005-----0
  6
CONTINUOUS
  5
129
 10
354.219995
 20
266.538754
 30
0.0
 11
357.718595
 21
270.037354
 31
0.0
  0
LINE
  8
LC-006-005-----0
  6
CONTINUOUS
  5
12A
 10
354.219995
 20
269.367181
 30
0.0
 11
357.718595
 21
272.865781
 31
0.0
  0
LINE
  8
LC-006-005-----0
  6
CONTINUOUS
  5
12B
 10
354.219995
 20
272.195608
 30
0.0
 11
357.718595
 21
275.694208
 31
0.0
  0
LINE
  8
LC-006-005-----0
  6
CONTINUOUS
  5
12C
 10
354.219995
 20
275.024036
 30
0.0
 11
357.718595
 21
278.522636
 31
0.0
  0
LINE
  8
LC-006-005-----0
  6
CONTINUOUS
  5
12D
 10
354.219995
 20
277.852463
 30
0.0
 11
357.718595
 21
281.351063
 31
0.0
  0
LINE
  8
LC-006-005-----0
  6
CONTINUOUS
  5
12E
 10
354.219995
 20
280.68089
 30
0.0
 11
357.718595
 21
284.17949
 31
0.0
  0
LINE
  8
LC-006-005-----0
  6
CONTINUOUS
  5
12F
 10
354.219995
 20
283.509317
 30
0.0
 11
357.718595
 21
287.007917
 31
0.0
  0
LINE
  8
LC-006-005-----0
  6
CONTINUOUS
  5
130
 10
354.219995
 20
286.337744
 30
0.0
 11
357.718595
 21
289.836344
 31
0.0
  0
LINE
  8
LC-006-005-----0
  6
CONTINUOUS
  5
131
 10
354.219995
 20
289.166171
 30
0.0
 11
357.718595
 21
292.664771
 31
0.0
  0
LINE
  8
LC-006-005-----0
  6
CONTINUOUS
  5
132
 10
354.219995
 20
291.994598
 30
0.0
 11
357.718595
 21
295.493198
 31
0.0
  0
LINE
  8
LC-006-005-----0
  6
CONTINUOUS
  5
133
 10
354.219995
 20
294.823025
 30
0.0
 11
357.718595
 21
298.321625
 31
0.0
  0
LINE
  8
LC-006-005-----0
  6
CONTINUOUS
  5
134
 10
354.219995
 20
297.651453
 30
0.0
 11
357.718595
 21
301.150053
 31
0.0
  0
LINE
  8
LC-006-005-----0
  6
CONTINUOUS
  5
135
 10
354.219995
 20
300.47988
 30
0.0
 11
357.718595
 21
303.97848
 31
0.0
  0
LINE
  8
LC-006-005-----0
  6
CONTINUOUS
  5
136
 10
354.219995
 20
303.308307
 30
0.0
 11
357.718595
 21
306.806907
 31
0.0
  0
LINE
  8
LC-006-005-----0
  6
CONTINUOUS
  5
137
 10
354.219995
 20
306.136734
 30
0.0
 11
357.718595
 21
309.635334
 31
0.0
  0
LINE
  8
LC-006-005-----0
  6
CONTINUOUS
  5
138
 10
354.219995
 20
308.965161
 30
0.0
 11
357.718595
 21
312.463761
 31
0.0
  0
LINE
  8
LC-006-005-----0
  6
CONTINUOUS
  5
139
 10
354.219995
 20
311.793588
 30
0.0
 11
357.718595
 21
315.292188
 31
0.0
  0
LINE
  8
LC-006-005-----0
  6
CONTINUOUS
  5
13A
 10
354.219995
 20
314.622015
 30
0.0
 11
357.718595
 21
318.120615
 31
0.0
  0
LINE
  8
LC-006-005-----0
  6
CONTINUOUS
  5
13B
 10
354.219995
 20
317.450442
 30
0.0
 11
357.718595
 21
320.949042
 31
0.0
  0
LINE
  8
LC-006-005-----0
  6
CONTINUOUS
  5
13C
 10
354.219995
 20
320.27887
 30
0.0
 11
357.718595
 21
323.77747
 31
0.0
  0
LINE
  8
LC-006-005-----0
  6
CONTINUOUS
  5
13D
 10
354.219995
 20
323.107297
 30
0.0
 11
357.718595
 21
326.605897
 31
0.0
  0
LINE
  8
LC-006-005-----0
  6
CONTINUOUS
  5
13E
 10
354.219995
 20
325.935724
 30
0.0
 11
357.718595
 21
329.434324
 31
0.0
  0
LINE
  8
LC-006-005-----0
  6
CONTINUOUS
  5
13F
 10
385.798951
 20
357.51468
 30
0.0
 11
387.625627
 21
359.341356
 31
0.0
  0
LINE
  8
LC-006-005-----0
  6
CONTINUOUS
  5
140
 10
389.296418
 20
361.012146
 30
0.0
 11
392.12237
 21
363.838099
 31
0.0
  0
LINE
  8
LC-006-005-----0
  6
CONTINUOUS
  5
141
 10
354.190122
 20
328.734278
 30
0.0
 11
356.751275
 21
331.295431
 31
0.0
  0
LINE
  8
LC-006-005-----0
  6
CONTINUOUS
  5
142
 10
382.970524
 20
357.51468
 30
0.0
 11
391.328405
 21
365.872561
 31
0.0
  0
LINE
  8
LC-006-005-----0
  6
CONTINUOUS
  5
143
 10
352.396971
 20
329.769554
 30
0.0
 11
354.958124
 21
332.330707
 31
0.0
  0
LINE
  8
LC-006-005-----0
  6
CONTINUOUS
  5
144
 10
380.142097
 20
357.51468
 30
0.0
 11
388.452864
 21
365.825447
 31
0.0
  0
LINE
  8
LC-006-005-----0
  6
CONTINUOUS
  5
145
 10
350.60382
 20
330.804831
 30
0.0
 11
353.164973
 21
333.365984
 31
0.0
  0
LINE
  8
LC-006-005-----0
  6
CONTINUOUS
  5
146
 10
377.31367
 20
357.51468
 30
0.0
 11
380.811136
 21
361.012146
 31
0.0
  0
LINE
  8
LC-006-005-----0
  6
CONTINUOUS
  5
147
 10
348.810669
 20
331.840107
 30
0.0
 11
351.371822
 21
334.40126
 31
0.0
  0
LINE
  8
LC-006-005-----0
  6
CONTINUOUS
  5
148
 10
374.485243
 20
357.51468
 30
0.0
 11
377.982709
 21
361.012146
 31
0.0
  0
LINE
  8
LC-006-005-----0
  6
CONTINUOUS
  5
149
 10
347.017519
 20
332.875383
 30
0.0
 11
349.578672
 21
335.436536
 31
0.0
  0
LINE
  8
LC-006-005-----0
  6
CONTINUOUS
  5
14A
 10
372.08608
 20
357.943944
 30
0.0
 11
375.535223
 21
361.393088
 31
0.0
  0
LINE
  8
LC-006-005-----0
  6
CONTINUOUS
  5
14B
 10
345.224368
 20
333.910659
 30
0.0
 11
347.785521
 21
336.471812
 31
0.0
  0
LINE
  8
LC-006-005-----0
  6
CONTINUOUS
  5
14C
 10
371.637209
 20
360.323501
 30
0.0
 11
375.034748
 21
363.72104
 31
0.0
  0
LINE
  8
LC-006-005-----0
  6
CONTINUOUS
  5
14D
 10
344.223995
 20
335.738714
 30
0.0
 11
347.722595
 21
339.237314
 31
0.0
  0
LINE
  8
LC-006-005-----0
  6
CONTINUOUS
  5
14E
 10
371.09627
 20
362.610988
 30
0.0
 11
375.034748
 21
366.549467
 31
0.0
  0
LINE
  8
LC-006-005-----0
  6
CONTINUOUS
  5
14F
 10
344.223995
 20
338.567141
 30
0.0
 11
347.722595
 21
342.065741
 31
0.0
  0
LINE
  8
LC-006-005-----0
  6
CONTINUOUS
  5
150
 10
368.267842
 20
362.610988
 30
0.0
 11
372.96444
 21
367.307586
 31
0.0
  0
LINE
  8
LC-006-005-----0
  6
CONTINUOUS
  5
151
 10
344.223995
 20
341.395568
 30
0.0
 11
347.722595
 21
344.894168
 31
0.0
  0
LINE
  8
LC-006-005-----0
  6
CONTINUOUS
  5
152
 10
365.439415
 20
362.610988
 30
0.0
 11
370.136013
 21
367.307586
 31
0.0
  0
LINE
  8
LC-006-005-----0
  6
CONTINUOUS
  5
153
 10
344.223995
 20
344.223995
 30
0.0
 11
347.722595
 21
347.722595
 31
0.0
  0
LINE
  8
LC-006-005-----0
  6
CONTINUOUS
  5
154
 10
362.610988
 20
362.610988
 30
0.0
 11
367.307586
 21
367.307586
 31
0.0
  0
LINE
  8
LC-006-005-----0
  6
CONTINUOUS
  5
155
 10
344.223995
 20
347.052422
 30
0.0
 11
347.722595
 21
350.551022
 31
0.0
  0
LINE
  8
LC-006-005-----0
  6
CONTINUOUS
  5
156
 10
359.782561
 20
362.610988
 30
0.0
 11
364.479159
 21
367.307586
 31
0.0
  0
LINE
  8
LC-006-005-----0
  6
CONTINUOUS
  5
157
 10
344.223995
 20
349.880849
 30
0.0
 11
347.722595
 21
353.379449
 31
0.0
  0
LINE
  8
LC-006-005-----0
  6
CONTINUOUS
  5
158
 10
356.954134
 20
362.610988
 30
0.0
 11
361.650732
 21
367.307586
 31
0.0
  0
LINE
  8
LC-006-005-----0
  6
CONTINUOUS
  5
159
 10
344.223995
 20
352.709276
 30
0.0
 11
347.722595
 21
356.207876
 31
0.0
  0
LINE
  8
LC-006-005-----0
  6
CONTINUOUS
  5
15A
 10
354.125707
 20
362.610988
 30
0.0
 11
358.822305
 21
367.307586
 31
0.0
  0
LINE
  8
LC-006-005-----0
  6
CONTINUOUS
  5
15B
 10
344.223995
 20
355.537704
 30
0.0
 11
347.722595
 21
359.036304
 31
0.0
  0
LINE
  8
LC-006-005-----0
  6
CONTINUOUS
  5
15C
 10
351.29728
 20
362.610988
 30
0.0
 11
355.993877
 21
367.307586
 31
0.0
  0
LINE
  8
LC-006-005-----0
  6
CONTINUOUS
  5
15D
 10
344.223995
 20
358.366131
 30
0.0
 11
347.722595
 21
361.864731
 31
0.0
  0
LINE
  8
LC-006-005-----0
  6
CONTINUOUS
  5
15E
 10
349.339727
 20
363.481862
 30
0.0
 11
353.16545
 21
367.307586
 31
0.0
  0
LINE
  8
LC-006-005-----0
  6
CONTINUOUS
  5
15F
 10
344.223995
 20
361.194558
 30
0.0
 11
350.398595
 21
367.369158
 31
0.0
  0
LINE
  8
LC-006-005-----0
  6
CONTINUOUS
  5
160
 10
344.223995
 20
364.022985
 30
0.0
 11
348.984382
 21
368.783372
 31
0.0
  0
LINE
  8
LC-006-005-----0
  6
CONTINUOUS
  5
161
 10
344.223995
 20
366.851412
 30
0.0
 11
347.570168
 21
370.197585
 31
0.0
  0
LINE
  8
LC-006-005-----0
  6
CONTINUOUS
  5
162
 10
344.223995
 20
369.679839
 30
0.0
 11
345.734188
 21
371.190032
 31
0.0
  0
ENDBLK
  8
0
  5
163
  0
BLOCK
  8
0
  5
165
  2
*D5
 70
    65
 10
0.0
 20
0.0
 30
0.0
  3
*D5
  0
LINE
  8
LC-003-003-MTH-0
  6
CONTINUOUS
  5
166
 10
257.366595
 20
207.77465
 30
0.0
 11
257.366595
 21
149.2
 31
0.0
  0
LINE
  8
LC-003-003-MTH-0
  6
CONTINUOUS
  5
167
 10
357.718595
 20
207.77465
 30
0.0
 11
357.718595
 21
149.2
 31
0.0
  0
LINE
  8
LC-004-003-MTG-0
  6
CONTINUOUS
  5
168
 10
257.366595
 20
160.0
 30
0.0
 11
357.718595
 21
160.0
 31
0.0
  0
LINE
  8
LC-002-003-----0
  6
CONTINUOUS
  5
169
 10
275.212603
 20
162.349471
 30
0.0
 11
257.366595
 21
160.0
 31
0.0
  0
LINE
  8
LC-002-003-----0
  6
CONTINUOUS
  5
16A
 10
257.366595
 20
160.0
 30
0.0
 11
275.212603
 21
157.650529
 31
0.0
  0
LINE
  8
LC-002-003-----0
  6
CONTINUOUS
  5
16B
 10
275.212603
 20
157.650529
 30
0.0
 11
275.212603
 21
162.349471
 31
0.0
  0
LINE
  8
LC-002-003-----0
  6
CONTINUOUS
  5
16C
 10
275.252641
 20
161.738609
 30
0.0
 11
262.046595
 21
160.0
 31
0.0
  0
LINE
  8
LC-002-003-----0
  6
CONTINUOUS
  5
16D
 10
262.046595
 20
160.0
 30
0.0
 11
275.252641
 21
158.261391
 31
0.0
  0
LINE
  8
LC-002-003-----0
  6
CONTINUOUS
  5
16E
 10
275.292679
 20
161.127746
 30
0.0
 11
266.726595
 21
160.0
 31
0.0
  0
LINE
  8
LC-002-003-----0
  6
CONTINUOUS
  5
16F
 10
266.726595
 20
160.0
 30
0.0
 11
275.292679
 21
158.872254
 31
0.0
  0
LINE
  8
LC-002-003-----0
  6
CONTINUOUS
  5
170
 10
275.332717
 20
160.516884
 30
0.0
 11
271.406595
 21
160.0
 31
0.0
  0
LINE
  8
LC-002-003-----0
  6
CONTINUOUS
  5
171
 10
271.406595
 20
160.0
 30
0.0
 11
275.332717
 21
159.483116
 31
0.0
  0
LINE
  8
LC-002-003-----0
  6
CONTINUOUS
  5
172
 10
339.872588
 20
157.650529
 30
0.0
 11
357.718595
 21
160.0
 31
0.0
  0
LINE
  8
LC-002-003-----0
  6
CONTINUOUS
  5
173
 10
357.718595
 20
160.0
 30
0.0
 11
339.872588
 21
162.349471
 31
0.0
  0
LINE
  8
LC-002-003-----0
  6
CONTINUOUS
  5
174
 10
339.872588
 20
162.349471
 30
0.0
 11
339.872588
 21
157.650529
 31
0.0
  0
LINE
  8
LC-002-003-----0
  6
CONTINUOUS
  5
175
 10
339.83255
 20
158.261391
 30
0.0
 11
353.038595
 21
160.0
 31
0.0
  0
LINE
  8
LC-002-003-----0
  6
CONTINUOUS
  5
176
 10
353.038595
 20
160.0
 30
0.0
 11
339.83255
 21
161.738609
 31
0.0
  0
LINE
  8
LC-002-003-----0
  6
CONTINUOUS
  5
177
 10
339.792512
 20
158.872254
 30
0.0
 11
348.358595
 21
160.0
 31
0.0
  0
LINE
  8
LC-002-003-----0
  6
CONTINUOUS
  5
178
 10
348.358595
 20
160.0
 30
0.0
 11
339.792512
 21
161.127746
 31
0.0
  0
LINE
  8
LC-002-003-----0
  6
CONTINUOUS
  5
179
 10
339.752473
 20
159.483116
 30
0.0
 11
343.678595
 21
160.0
 31
0.0
  0
LINE
  8
LC-002-003-----0
  6
CONTINUOUS
  5
17A
 10
343.678595
 20
160.0
 30
0.0
 11
339.752473
 21
160.516884
 31
0.0
  0
TEXT
  8
LC-002-003-----0
  6
CONTINUOUS
 62
     6
  5
17B
 10
285.846502
 20
170.431999
 30
0.0
 40
18.0
  1
Ø100
 51
15.0
  7
LC-TXTSTYLE-150-400-0-0-D0
 72
     1
 11
310.337841
 21
170.431999
 31
0.0
  0
ENDBLK
  8
0
  5
17C
  0
BLOCK
  8
0
  5
17E
  2
*D6
 70
    65
 10
0.0
 20
0.0
 30
0.0
  3
*D6
  0
LINE
  8
LC-003-003-MTH-0
  6
CONTINUOUS
  5
17F
 10
357.718595
 20
207.77465
 30
0.0
 11
486.8
 21
207.77465
 31
0.0
  0
LINE
  8
LC-003-003-MTH-0
  6
CONTINUOUS
  5
180
 10
457.169787
 20
412.77465
 30
0.0
 11
486.8
 21
412.77465
 31
0.0
  0
LINE
  8
LC-004-003-MTG-0
  6
CONTINUOUS
  5
181
 10
476.0
 20
207.77465
 30
0.0
 11
476.0
 21
412.77465
 31
0.0
  0
LINE
  8
LC-002-003-----0
  6
CONTINUOUS
  5
182
 10
473.650529
 20
225.620657
 30
0.0
 11
476.0
 21
207.77465
 31
0.0
  0
LINE
  8
LC-002-003-----0
  6
CONTINUOUS
  5
183
 10
476.0
 20
207.77465
 30
0.0
 11
478.349471
 21
225.620657
 31
0.0
  0
LINE
  8
LC-002-003-----0
  6
CONTINUOUS
  5
184
 10
478.349471
 20
225.620657
 30
0.0
 11
473.650529
 21
225.620657
 31
0.0
  0
LINE
  8
LC-002-003-----0
  6
CONTINUOUS
  5
185
 10
474.261391
 20
225.660695
 30
0.0
 11
476.0
 21
212.45465
 31
0.0
  0
LINE
  8
LC-002-003-----0
  6
CONTINUOUS
  5
186
 10
476.0
 20
212.45465
 30
0.0
 11
477.738609
 21
225.660695
 31
0.0
  0
LINE
  8
LC-002-003-----0
  6
CONTINUOUS
  5
187
 10
474.872254
 20
225.700733
 30
0.0
 11
476.0
 21
217.13465
 31
0.0
  0
LINE
  8
LC-002-003-----0
  6
CONTINUOUS
  5
188
 10
476.0
 20
217.13465
 30
0.0
 11
477.127746
 21
225.700733
 31
0.0
  0
LINE
  8
LC-002-003-----0
  6
CONTINUOUS
  5
189
 10
475.483116
 20
225.740772
 30
0.0
 11
476.0
 21
221.81465
 31
0.0
  0
LINE
  8
LC-002-003-----0
  6
CONTINUOUS
  5
18A
 10
476.0
 20
221.81465
 30
0.0
 11
476.516884
 21
225.740772
 31
0.0
  0
LINE
  8
LC-002-003-----0
  6
CONTINUOUS
  5
18B
 10
478.349471
 20
394.928642
 30
0.0
 11
476.0
 21
412.77465
 31
0.0
  0
LINE
  8
LC-002-003-----0
  6
CONTINUOUS
  5
18C
 10
476.0
 20
412.77465
 30
0.0
 11
473.650529
 21
394.928642
 31
0.0
  0
LINE
  8
LC-002-003-----0
  6
CONTINUOUS
  5
18D
 10
473.650529
 20
394.928642
 30
0.0
 11
478.349471
 21
394.928642
 31
0.0
  0
LINE
  8
LC-002-003-----0
  6
CONTINUOUS
  5
18E
 10
477.738609
 20
394.888604
 30
0.0
 11
476.0
 21
408.09465
 31
0.0
  0
LINE
  8
LC-002-003-----0
  6
CONTINUOUS
  5
18F
 10
476.0
 20
408.09465
 30
0.0
 11
474.261391
 21
394.888604
 31
0.0
  0
LINE
  8
LC-002-003-----0
  6
CONTINUOUS
  5
190
 10
477.127746
 20
394.848566
 30
0.0
 11
476.0
 21
403.41465
 31
0.0
  0
LINE
  8
LC-002-003-----0
  6
CONTINUOUS
  5
191
 10
476.0
 20
403.41465
 30
0.0
 11
474.872254
 21
394.848566
 31
0.0
  0
LINE
  8
LC-002-003-----0
  6
CONTINUOUS
  5
192
 10
476.516884
 20
394.808528
 30
0.0
 11
476.0
 21
398.73465
 31
0.0
  0
LINE
  8
LC-002-003-----0
  6
CONTINUOUS
  5
193
 10
476.0
 20
398.73465
 30
0.0
 11
475.483116
 21
394.808528
 31
0.0
  0
TEXT
  8
LC-002-003-----0
  6
CONTINUOUS
 62
     6
  5
194
 10
465.568001
 20
293.936037
 30
0.0
 40
18.0
  1
205
 50
90.0
 51
15.0
  7
LC-TXTSTYLE-150-400-0-0-D0
 72
     1
 11
465.568001
 21
313.069896
 31
0.0
  0
ENDBLK
  8
0
  5
195
  0
BLOCK
  8
0
  5
197
  2
BLK1
 70
    64
 10
0.0
 20
0.0
 30
0.0
  3
BLK1
  0
ENDBLK
  8
0
  5
198
  0
ENDSEC
  0
SECTION
  2
ENTITIES
  0
VIEWPORT
  8
LC-000
  5
1FE
 67
     1
 68
     1
 10
420.0
 20
297.0
 30
0.0
 40
840.0
 41
594.0
 69
     1
1001
ACAD
1000
MVIEW
1002
{
1070
    16
1010
0.0
1020
0.0
1030
0.0
1010
0.0
1020
0.0
1030
1.0
1040
0.0
1040
594.0
1040
420.0
1040
297.0
1040
50.0
1040
0.0
1040
0.0
1070
     0
1070
   100
1070
     1
1070
     1
1070
     0
1070
     0
1070
     0
1070
     0
1040
0.0
1040
0.0
1040
0.0
1040
1.0
1040
1.0
1040
0.0
1040
0.0
1070
     0
1002
{
1002
}
1002
}
  0
VIEWPORT
  8
0
  5
1FF
 67
     1
 68
     1
 10
0.0
 20
0.0
 30
0.0
 40
0.0
 41
0.0
 69
     1
1001
ACAD
1000
MVIEW
1002
{
1070
    16
1010
0.0
1020
0.0
1030
0.0
1010
0.0
1020
0.0
1030
1.0
1040
0.0
1040
594.0
1040
0.0
1040
0.0
1040
50.0
1040
0.0
1040
0.0
1070
     0
1070
   100
1070
     0
1070
     1
1070
     0
1070
     0
1070
     0
1070
     0
1040
0.0
1040
0.0
1040
0.0
1040
0.5
1040
0.5
1040
0.5
1040
0.5
1070
     0
1002
{
1002
}
1002
}
  0
DIMENSION
  8
0
  5
199
  2
*D0
 10
440.0
 20
403.01526
 30
0.0
 11
440.0
 21
403.01526
 31
0.0
  1
DN90
 13
392.12237
 23
365.88557
 33
0.0
 14
392.12237
 24
459.740628
 34
0.0
 50
90.0
  3
LC-DIM-L-0090-02-02
  0
INSERT
  8
0
  5
19A
  2
*X1
 10
376.525626
 20
457.581247
 30
0.0
  0
INSERT
  8
0
  5
19B
  2
*X2
 10
376.525626
 20
361.72758
 30
0.0
  0
INSERT
  8
0
  5
19C
  2
*X3
 10
257.366595
 20
207.77465
 30
0.0
  0
INSERT
  8
0
  5
19D
  2
*X4
 10
344.223995
 20
207.77465
 30
0.0
  0
DIMENSION
  8
0
  5
19E
  2
*D5
 10
307.542595
 20
160.0
 30
0.0
 11
307.542595
 21
160.0
 31
0.0
  1
%%c100
 13
257.366595
 23
207.77465
 33
0.0
 14
357.718595
 24
207.77465
 34
0.0
  3
LC-DIM-L-0090-02-02
  0
DIMENSION
  8
0
  5
19F
  2
*D6
 10
476.0
 20
310.27465
 30
0.0
 11
476.0
 21
310.27465
 31
0.0
 13
457.169787
 23
412.77465
 33
0.0
 14
357.718595
 24
207.77465
 34
0.0
 50
90.0
  3
LC-DIM-L-0090-02-02
  0
INSERT
  8
0
  5
1A1
  2
BLK1
 10
0.0
 20
0.0
 30
0.0
  0
LINE
  8
LC-001-002-----0
  5
1A4
 10
307.542595
 20
372.77465
 30
0.0
 11
307.542595
 21
207.77465
 31
0.0
  0
LINE
  8
LC-001-002-----0
  6
CONTINUOUS
 62
     1
  5
1A5
 10
257.366595
 20
207.77465
 30
0.0
 11
260.865195
 21
207.77465
 31
0.0
  0
LINE
  8
LC-001-002-----0
  6
CONTINUOUS
 62
     1
  5
1A6
 10
260.865195
 20
207.77465
 30
0.0
 11
357.718595
 21
207.77465
 31
0.0
  0
LINE
  8
LC-001-002-----0
  5
1A7
 10
347.542595
 20
412.77465
 30
0.0
 11
392.12237
 21
412.77465
 31
0.0
  0
ARC
  8
LC-005-002-RND-0
  5
1A9
 10
347.542595
 20
372.77465
 30
0.0
 40
40.0
 50
90.0
 51
180.0
  0
LINE
  8
LC-001-002-----0
  6
CONTINUOUS
 62
     1
  5
1AA
 10
376.525626
 20
463.82172
 30
0.0
 11
376.525626
 21
461.82172
 31
0.0
  0
LINE
  8
LC-001-002-----0
  6
CONTINUOUS
 62
     1
  5
1AB
 10
379.525626
 20
461.82172
 30
0.0
 11
376.525626
 21
461.82172
 31
0.0
  0
LINE
  8
LC-001-002-----0
  6
CONTINUOUS
 62
     1
  5
1AC
 10
385.232733
 20
460.581247
 30
0.0
 11
385.232733
 21
459.741998
 31
0.0
  0
ARC
  8
LC-005-002-RND-0
  6
CONTINUOUS
 62
     1
  5
1AD
 10
382.232733
 20
460.581247
 30
0.0
 40
3.0
 50
0.0
 51
45.0
  0
LINE
  8
LC-001-002-----0
  6
CONTINUOUS
 62
     1
  5
1AE
 10
381.99226
 20
463.82172
 30
0.0
 11
376.525626
 21
463.82172
 31
0.0
  0
ARC
  8
LC-005-002-RND-0
  6
CONTINUOUS
 62
     1
  5
1AF
 10
381.99226
 20
460.82172
 30
0.0
 40
3.0
 50
45.0
 51
90.0
  0
LINE
  8
LC-001-002-----0
  6
CONTINUOUS
 62
     1
  5
1B0
 10
376.525626
 20
361.72758
 30
0.0
 11
376.525626
 21
363.72758
 31
0.0
  0
LINE
  8
LC-001-002-----0
  6
CONTINUOUS
 62
     1
  5
1B1
 10
385.232733
 20
459.741998
 30
0.0
 11
377.83387
 21
457.962483
 31
0.0
  0
ARC
  8
LC-005-002-RND-0
  6
CONTINUOUS
 62
     1
  5
1B2
 10
377.716948
 20
458.44862
 30
0.0
 40
0.5
 50
144.293129
 51
283.523468
  0
LINE
  8
LC-001-002-----0
  6
CONTINUOUS
 62
     1
  5
1B3
 10
379.525626
 20
461.82172
 30
0.0
 11
377.310941
 21
458.740439
 31
0.0
  0
LINE
  8
LC-001-002-----0
  6
CONTINUOUS
 62
     1
  5
1B4
 10
379.525626
 20
363.72758
 30
0.0
 11
376.525626
 21
363.72758
 31
0.0
  0
LINE
  8
LC-001-002-----0
  6
CONTINUOUS
 62
     1
  5
1B5
 10
381.99226
 20
361.72758
 30
0.0
 11
376.525626
 21
361.72758
 31
0.0
  0
ARC
  8
LC-005-002-RND-0
  6
CONTINUOUS
 62
     1
  5
1B6
 10
381.99226
 20
364.72758
 30
0.0
 40
3.0
 50
270.0
 51
315.0
  0
LINE
  8
LC-001-002-----0
  6
CONTINUOUS
 62
     1
  5
1B7
 10
385.232733
 20
365.807301
 30
0.0
 11
377.83387
 21
367.586817
 31
0.0
  0
ARC
  8
LC-005-002-RND-0
  6
CONTINUOUS
 62
     1
  5
1B8
 10
377.716948
 20
367.10068
 30
0.0
 40
0.5
 50
76.476532
 51
215.706871
  0
LINE
  8
LC-001-002-----0
  6
CONTINUOUS
 62
     1
  5
1B9
 10
379.525626
 20
363.72758
 30
0.0
 11
377.310941
 21
366.808861
 31
0.0
  0
LINE
  8
LC-001-002-----0
  6
CONTINUOUS
 62
     1
  5
1BA
 10
385.232733
 20
364.968053
 30
0.0
 11
385.232733
 21
365.807301
 31
0.0
  0
ARC
  8
LC-005-002-RND-0
  6
CONTINUOUS
 62
     1
  5
1BB
 10
382.232733
 20
364.968053
 30
0.0
 40
3.0
 50
315.0
 51
0.0
  0
LINE
  8
LC-001-002-----0
  6
CONTINUOUS
 62
     1
  5
1BC
 10
384.11358
 20
462.94304
 30
0.0
 11
384.354054
 21
462.702567
 31
0.0
  0
LINE
  8
LC-001-002-----0
  6
CONTINUOUS
 62
     1
  5
1BD
 10
384.11358
 20
362.606259
 30
0.0
 11
384.354054
 21
362.846732
 31
0.0
  0
ARC
  8
LC-001-002-----0
  6
CONTINUOUS
 62
     1
  5
1BE
 10
347.526595
 20
367.89065
 30
0.0
 40
86.6614
 50
93.822421
 51
180.25704
  0
ARC
  8
LC-001-002-----0
  6
CONTINUOUS
 62
     1
  5
1BF
 10
347.526595
 20
367.89065
 30
0.0
 40
90.16
 50
91.418094
 51
180.0
  0
ARC
  8
LC-005-002-RND-0
  6
CONTINUOUS
 62
     1
  5
1C0
 10
348.212595
 20
363.916029
 30
0.0
 40
0.49
 50
45.0
 51
180.0
  0
ARC
  8
LC-005-002-RND-0
  6
CONTINUOUS
 62
     1
  5
1C1
 10
389.125027
 20
466.036553
 30
0.0
 40
1.4994
 50
180.0
 51
270.0
  0
ARC
  8
LC-005-002-RND-0
  6
CONTINUOUS
 62
     1
  5
1C2
 10
386.126713
 20
466.535706
 30
0.0
 40
1.498914
 50
0.0
 51
90.0
  0
ARC
  8
LC-005-002-RND-0
  6
CONTINUOUS
 62
     1
  5
1C3
 10
352.945708
 20
467.235199
 30
0.0
 40
0.999276
 50
90.0
 51
180.0
  0
ARC
  8
LC-005-002-RND-0
  6
CONTINUOUS
 62
     1
  5
1C4
 10
376.533662
 20
463.038239
 30
0.0
 40
1.498914
 50
90.0
 51
180.0
  0
ARC
  8
LC-005-002-RND-0
  6
CONTINUOUS
 62
     1
  5
1C5
 10
373.136124
 20
466.535706
 30
0.0
 40
1.498914
 50
90.0
 51
180.0
  0
ARC
  8
LC-005-002-RND-0
  6
CONTINUOUS
 62
     1
  5
1C6
 10
353.445346
 20
467.235199
 30
0.0
 40
0.999276
 50
0.0
 51
90.0
  0
ARC
  8
LC-005-002-RND-0
  6
CONTINUOUS
 62
     1
  5
1C7
 10
349.125601
 20
460.440121
 30
0.0
 40
0.999276
 50
96.849132
 51
135.0
  0
ARC
  8
LC-005-002-RND-0
  6
CONTINUOUS
 62
     1
  5
1C8
 10
389.125027
 20
359.512746
 30
0.0
 40
1.4994
 50
90.0
 51
180.0
  0
ARC
  8
LC-005-002-RND-0
  6
CONTINUOUS
 62
     1
  5
1C9
 10
386.126713
 20
359.013594
 30
0.0
 40
1.498914
 50
270.0
 51
0.0
  0
ARC
  8
LC-005-002-RND-0
  6
CONTINUOUS
 62
     1
  5
1CA
 10
376.533662
 20
362.511061
 30
0.0
 40
1.498914
 50
180.0
 51
270.0
  0
ARC
  8
LC-005-002-RND-0
  6
CONTINUOUS
 62
     1
  5
1CB
 10
373.136124
 20
359.013594
 30
0.0
 40
1.498914
 50
180.0
 51
270.0
  0
LINE
  8
LC-001-002-----0
  6
CONTINUOUS
 62
     1
  5
1CC
 10
357.718595
 20
330.736949
 30
0.0
 11
357.718595
 21
207.77465
 31
0.0
  0
LINE
  8
LC-001-002-----0
  6
CONTINUOUS
 62
     1
  5
1CD
 10
354.219995
 20
328.717031
 30
0.0
 11
354.219995
 21
207.77465
 31
0.0
  0
LINE
  8
LC-001-002-----0
  6
CONTINUOUS
 62
     1
  5
1CE
 10
354.219995
 20
328.717031
 30
0.0
 11
260.865195
 21
328.717031
 31
0.0
  0
LINE
  8
LC-001-002-----0
  6
CONTINUOUS
 62
     1
  5
1CF
 10
344.223995
 20
334.488224
 30
0.0
 11
260.865195
 21
328.717031
 31
0.0
  0
LINE
  8
LC-001-002-----0
  6
CONTINUOUS
 62
     1
  5
1D0
 10
357.718595
 20
330.736949
 30
0.0
 11
347.722595
 21
336.508142
 31
0.0
  0
LINE
  8
LC-001-002-----0
  6
CONTINUOUS
 62
     1
  5
1D1
 10
354.219995
 20
328.717031
 30
0.0
 11
344.223995
 21
334.488224
 31
0.0
  0
LINE
  8
LC-001-002-----0
  6
CONTINUOUS
 62
     1
  5
1D2
 10
341.749369
 20
454.359268
 30
0.0
 11
346.577722
 21
454.359268
 31
0.0
  0
LINE
  8
LC-001-002-----0
  6
CONTINUOUS
 62
     1
  5
1D3
 10
260.865195
 20
367.501868
 30
0.0
 11
260.865195
 21
207.77465
 31
0.0
  0
LINE
  8
LC-001-002-----0
  6
CONTINUOUS
 62
     1
  5
1D4
 10
349.006431
 20
461.432266
 30
0.0
 11
351.946431
 21
461.432266
 31
0.0
  0
LINE
  8
LC-001-002-----0
  6
CONTINUOUS
 62
     1
  5
1D5
 10
344.223995
 20
371.190032
 30
0.0
 11
316.913165
 21
398.500862
 31
0.0
  0
LINE
  8
LC-001-002-----0
  6
CONTINUOUS
 62
     1
  5
1D6
 10
347.722595
 20
363.916029
 30
0.0
 11
347.722595
 21
336.508142
 31
0.0
  0
LINE
  8
LC-001-002-----0
  6
CONTINUOUS
 62
     1
  5
1D7
 10
350.210601
 20
362.610988
 30
0.0
 11
348.559077
 21
364.262512
 31
0.0
  0
LINE
  8
LC-001-002-----0
  6
CONTINUOUS
 62
     1
  5
1D8
 10
257.366595
 20
367.89065
 30
0.0
 11
257.366595
 21
207.77465
 31
0.0
  0
LINE
  8
LC-001-002-----0
  6
CONTINUOUS
 62
     1
  5
1D9
 10
392.12237
 20
365.808672
 30
0.0
 11
387.429011
 21
365.808672
 31
0.0
  0
LINE
  8
LC-001-002-----0
  6
CONTINUOUS
 62
     1
  5
1DA
 10
382.632486
 20
464.537153
 30
0.0
 11
376.533662
 21
464.537153
 31
0.0
  0
LINE
  8
LC-001-002-----0
  6
CONTINUOUS
 62
     1
  5
1DB
 10
344.223995
 20
371.190032
 30
0.0
 11
344.223995
 21
334.488224
 31
0.0
  0
LINE
  8
LC-001-002-----0
  6
CONTINUOUS
 62
     1
  5
1DC
 10
350.460168
 20
367.307586
 30
0.0
 11
346.577722
 21
371.190032
 31
0.0
  0
LINE
  8
LC-001-002-----0
  6
CONTINUOUS
 62
     1
  5
1DD
 10
392.12237
 20
459.740628
 30
0.0
 11
387.429011
 21
459.740628
 31
0.0
  0
LINE
  8
LC-001-002-----0
  6
CONTINUOUS
 62
     1
  5
1DE
 10
348.419006
 20
461.146716
 30
0.0
 11
345.295325
 21
458.023036
 31
0.0
  0
LINE
  8
LC-001-002-----0
  6
CONTINUOUS
 62
     1
  5
1DF
 10
350.460168
 20
458.241714
 30
0.0
 11
350.460168
 21
367.307586
 31
0.0
  0
LINE
  8
LC-001-002-----0
  6
CONTINUOUS
 62
     1
  5
1E0
 10
344.223995
 20
371.190032
 30
0.0
 11
346.577722
 21
371.190032
 31
0.0
  0
LINE
  8
LC-001-002-----0
  6
CONTINUOUS
 62
     1
  5
1E1
 10
371.637209
 20
462.938312
 30
0.0
 11
354.444622
 21
462.938312
 31
0.0
  0
LINE
  8
LC-001-002-----0
  6
CONTINUOUS
 62
     1
  5
1E2
 10
387.625627
 20
466.036553
 30
0.0
 11
387.625627
 21
466.435778
 31
0.0
  0
LINE
  8
LC-001-002-----0
  6
CONTINUOUS
 62
     1
  5
1E3
 10
392.12237
 20
365.88557
 30
0.0
 11
392.12237
 21
464.537153
 31
0.0
  0
LINE
  8
LC-001-002-----0
  6
CONTINUOUS
 62
     1
  5
1E4
 10
392.12237
 20
464.537153
 30
0.0
 11
389.125027
 21
464.537153
 31
0.0
  0
LINE
  8
LC-001-002-----0
  6
CONTINUOUS
 62
     1
  5
1E5
 10
386.126713
 20
468.03462
 30
0.0
 11
373.136124
 21
468.03462
 31
0.0
  0
LINE
  8
LC-001-002-----0
  6
CONTINUOUS
 62
     1
  5
1E6
 10
371.637209
 20
362.610988
 30
0.0
 11
350.210601
 21
362.610988
 31
0.0
  0
LINE
  8
LC-001-002-----0
  6
CONTINUOUS
 62
     1
  5
1E7
 10
354.444622
 20
462.938312
 30
0.0
 11
354.444622
 21
467.235199
 31
0.0
  0
LINE
  8
LC-001-002-----0
  6
CONTINUOUS
 62
     1
  5
1E8
 10
351.946431
 20
461.432266
 30
0.0
 11
351.946431
 21
467.235199
 31
0.0
  0
LINE
  8
LC-001-002-----0
  6
CONTINUOUS
 62
     1
  5
1E9
 10
375.034748
 20
463.038239
 30
0.0
 11
375.034748
 21
412.77465
 31
0.0
  0
LINE
  8
LC-001-002-----0
  6
CONTINUOUS
 62
     1
  5
1EA
 10
382.632486
 20
361.012146
 30
0.0
 11
376.533662
 21
361.012146
 31
0.0
  0
LINE
  8
LC-001-002-----0
  6
CONTINUOUS
 62
     1
  5
1EB
 10
371.637209
 20
462.938312
 30
0.0
 11
371.637209
 21
466.535706
 31
0.0
  0
LINE
  8
LC-001-002-----0
  6
CONTINUOUS
 62
     1
  5
1EC
 10
353.445346
 20
468.234475
 30
0.0
 11
352.945708
 21
468.234475
 31
0.0
  0
LINE
  8
LC-001-002-----0
  6
CONTINUOUS
 62
     1
  5
1ED
 10
375.034748
 20
458.241714
 30
0.0
 11
350.460168
 21
458.241714
 31
0.0
  0
LINE
  8
LC-001-002-----0
  6
CONTINUOUS
 62
     1
  5
1EE
 10
350.460168
 20
458.241714
 30
0.0
 11
346.577722
 21
454.359268
 31
0.0
  0
LINE
  8
LC-001-002-----0
  6
CONTINUOUS
 62
     1
  5
1EF
 10
387.429011
 20
365.808672
 30
0.0
 11
382.632486
 21
361.012146
 31
0.0
  0
LINE
  8
LC-001-002-----0
  6
CONTINUOUS
 62
     1
  5
1F0
 10
387.625627
 20
359.512746
 30
0.0
 11
387.625627
 21
359.013594
 31
0.0
  0
LINE
  8
LC-001-002-----0
  6
CONTINUOUS
 62
     1
  5
1F1
 10
392.12237
 20
365.808672
 30
0.0
 11
392.12237
 21
361.012146
 31
0.0
  0
LINE
  8
LC-001-002-----0
  6
CONTINUOUS
 62
     1
  5
1F2
 10
392.12237
 20
361.012146
 30
0.0
 11
389.125027
 21
361.012146
 31
0.0
  0
LINE
  8
LC-001-002-----0
  6
CONTINUOUS
 62
     1
  5
1F3
 10
386.126713
 20
357.51468
 30
0.0
 11
373.136124
 21
357.51468
 31
0.0
  0
LINE
  8
LC-001-002-----0
  6
CONTINUOUS
 62
     1
  5
1F4
 10
375.034748
 20
362.511061
 30
0.0
 11
375.034748
 21
412.77465
 31
0.0
  0
LINE
  8
LC-001-002-----0
  6
CONTINUOUS
 62
     1
  5
1F5
 10
371.637209
 20
362.610988
 30
0.0
 11
371.637209
 21
359.013594
 31
0.0
  0
LINE
  8
LC-001-002-----0
  6
CONTINUOUS
 62
     1
  5
1F6
 10
346.577722
 20
454.359268
 30
0.0
 11
346.577722
 21
371.190032
 31
0.0
  0
LINE
  8
LC-001-002-----0
  6
CONTINUOUS
 62
     1
  5
1F7
 10
375.034748
 20
367.307586
 30
0.0
 11
350.460168
 21
367.307586
 31
0.0
  0
LINE
  8
LC-001-002-----0
  6
CONTINUOUS
 62
     1
  5
1F8
 10
387.429011
 20
459.740628
 30
0.0
 11
387.429011
 21
365.808672
 31
0.0
  0
LINE
  8
LC-001-002-----0
  6
CONTINUOUS
 62
     1
  5
1F9
 10
375.034748
 20
462.538601
 30
0.0
 11
375.034748
 21
460.839832
 31
0.0
  0
LINE
  8
LC-001-002-----0
  6
CONTINUOUS
 62
     1
  5
1FA
 10
387.429011
 20
459.740628
 30
0.0
 11
382.632486
 21
464.537153
 31
0.0
  0
LINE
  8
LC-001-002-----0
  6
CONTINUOUS
 62
     1
  5
1FB
 10
375.034748
 20
363.010699
 30
0.0
 11
375.034748
 21
364.709468
 31
0.0
  0
LINE
  8
LC-001-002-----0
  6
CONTINUOUS
 62
     1
  5
1FC
 10
392.12237
 20
365.88557
 30
0.0
 11
392.12237
 21
361.196662
 31
0.0
  0
ENDSEC
  0
EOF
